<?xml version="1.0" encoding="UTF-8" standalone="no"?>
<!DOCTYPE svg PUBLIC "-//W3C//DTD SVG 1.1//EN" "http://www.w3.org/Graphics/SVG/1.1/DTD/svg11.dtd">
<svg xmlns="http://www.w3.org/2000/svg">
<metadata>Generated by IcoMoon</metadata>
<defs>
<font id="icomoon" horiz-adv-x="512">
<font-face units-per-em="512" ascent="480" descent="-32"/>
<missing-glyph horiz-adv-x="512"/>
<glyph unicode=" " d="" horiz-adv-x="256"/>
<glyph unicode="!" d="M0 223.488q0 110.080 72.192 182.272t182.272 72.192 182.272-72.192 72.192-182.272q0-93.184-52.736-160.256t-143.36-87.552q-4.608 8.704-17.408 26.624t-17.92 28.672q32.768-13.312 44.032-13.312 8.192 0 8.192 25.6 0 47.616-8.704 47.616-12.8 0-49.664-28.16 0 7.168-7.68 6.144h-2.56q-13.312 35.328-13.312 62.976 0 7.68 1.536 15.36 47.104-23.040 75.776-23.040 15.872 0 48.128 9.216t32.256 19.968q0 6.656-8.704 6.656-13.312 0-38.4-3.584t-38.4-3.584q-13.824 0-30.72 7.168t-16.896 19.456q0 2.56 1.024 4.096t2.56 1.536 3.072 0 4.096-0.512 4.608-0.512q4.608 0 13.312-1.536t12.8-1.536q15.872 0 65.024 18.944t49.152 29.184q0 6.144-9.728 8.704t-17.92 2.56q-7.168 0-21.504-4.096t-31.232-9.216-22.528-7.168q2.048 10.24 2.048 16.384 0 24.064-12.8 56.32t-29.696 47.616q-13.824 12.288-36.864 16.896-14.336 18.432-45.056 33.792t-54.272 15.36q-4.608 0-14.336-2.048t-12.288-2.56l-11.264-15.872 3.072-0.512q3.584 0 11.264 1.024t11.264 1.024q17.408 0 39.936-7.168-14.336-7.168-25.088-9.728-1.024-0.512-6.656-1.536t-9.728-1.536-7.168-3.072-3.584-6.144q28.672 3.072 43.008 3.072 19.456 0 30.72-3.584-39.424-4.608-60.928-27.136t-21.504-61.952q0-13.824 2.048-25.6 9.728-61.44 37.376-183.296 16.896-78.848 18.944-87.040l0.512-2.048q-81.92 25.6-128.512 95.232t-46.592 157.696zM144.896 286.976q0-3.072 1.536-6.144-0.512 8.192 9.216 14.336t18.432 6.144q4.096 0 10.24-2.56-5.12 6.656-14.848 6.656-8.704 0-16.896-5.12t-8.192-13.824zM161.792 248.576q0 6.656 5.632 12.288t12.288 5.632 12.288-5.632 5.632-12.288-5.632-12.288-12.288-5.632-12.288 5.632-5.632 12.288zM182.272 254.208q0-4.096 4.608-4.096t4.608 4.096q0 4.608-4.608 4.608t-4.608-4.608zM268.288 298.752q4.096 6.656 18.944 6.656 6.656 0 16.896-5.12-5.12 11.264-17.92 11.264-15.872 0-17.92-12.8zM280.064 258.816q0 6.144 4.608 10.752t10.24 4.608q6.144 0 10.752-4.608t4.608-10.752q0-5.632-4.608-10.24t-10.752-4.608q-5.632 0-10.24 4.608t-4.608 10.24zM297.984 263.936q0-4.096 3.584-4.096 4.096 0 4.096 4.096 0 3.584-4.096 3.584-3.584 0-3.584-3.584z" horiz-adv-x="508"/>
<glyph unicode="&quot;" d="M0 265.984q0 53.76 27.136 96.256t70.144 67.584 92.672 37.888 99.84 12.8q14.848 0 22.016-0.512 58.88-3.072 115.712-20.992 44.544-14.336 84.992-38.4t75.264-55.808 55.296-75.264 20.992-90.112q0-6.656-0.512-9.728-5.632-77.824-61.952-131.072t-137.728-75.264q-54.784-15.36-117.248-15.36h-4.096q-102.912 0-161.28 27.136-3.072 1.024-3.584 3.072 0 1.024 1.536 1.024 0.512 0 2.048-0.512t2.048-0.512q25.6-6.144 45.568-6.144 12.288 0 24.064 2.56t22.528 10.24 10.752 20.48q0 6.144-3.072 12.288-4.608 8.192-30.208 17.408t-58.368 17.408-38.912 10.24q-40.96 13.312-71.168 33.792 0 0.512 2.048 5.12t3.072 7.68 3.584 6.144 4.608 3.072h91.648q4.608 0 8.704-11.264t10.752-22.528 18.432-11.264q9.216 0 15.872 6.144t6.656 15.36q0 5.632-43.008 101.888t-54.272 118.272q-3.072 7.68-8.192 7.68-4.096 0-6.656-4.608l-1.536-3.072q-4.096-7.68-26.624-58.368l-54.784-121.856-3.584-7.68q-48.64 55.808-48.64 119.808zM111.616 180.992q0 5.12 27.648 66.048l2.56 1.536q3.072 0 16.896-32.768t13.824-35.84q0-2.048-2.56-2.048h-55.296q-2.56 0-2.56 2.56zM268.8 118.016q0-23.040 24.064-23.040t24.064 23.040v198.656q0 23.040-24.064 23.040t-24.064-23.040v-198.656zM363.52 118.016q0-23.040 24.064-23.040t24.064 23.040v92.672l47.104-94.72q6.656-14.848 20.992-14.848 16.384 0 23.552 14.848l46.592 94.72v-92.672q0-23.040 24.064-23.040 24.576 0 24.576 23.040v198.656q0 23.040-24.064 23.040-17.92 0-24.064-14.848l-70.656-154.624-68.096 154.624q-7.168 14.848-24.576 14.848-23.552 0-23.552-23.040v-198.656z" horiz-adv-x="663"/>
<glyph unicode="#" d="M0-32v256.512h256.512v-256.512h-256.512zM260.608 223.488v256.512h256v-256.512h-256z" horiz-adv-x="517"/>
<glyph unicode="$" d="M0 23.808l99.328 456.192h224.256q25.6 0 49.664-9.216t43.52-28.672 27.136-48.64-0.512-69.12q-14.848-69.632-66.048-109.568t-119.808-39.936h-93.696l-32.256-151.552h-131.584zM51.2-32h131.584l32.256 151.040h94.208q68.608 0 119.296 39.936t66.048 109.568q14.336 69.12-22.016 112.128 16.896-37.888 6.144-87.040-14.848-69.632-66.048-109.568t-119.808-39.936h-93.696l-32.256-151.040h-110.592zM182.784 262.4h42.496l21.504 93.696h64q1.024 0 8.704-1.536-4.096 14.848-16.384 24.064t-28.672 9.216h-64zM246.784 262.912q24.576 1.024 46.080 18.944t27.136 43.008q0 1.024 0.512 3.072t0.512 3.072h-58.368z" horiz-adv-x="499"/>
<glyph unicode="%" d="M0 25.856v263.168q0 91.648 43.52 142.336t133.12 50.688h280.576q-2.56-2.56-27.136-27.136t-51.2-51.712-55.808-56.32-48.64-47.616-21.504-18.944q-7.68 0-7.68 8.192v79.872h-24.576q-30.208 0-48.64-3.584t-32.256-13.312-19.968-29.184-6.144-49.152v-134.144zM34.304-34.048q2.56 2.56 27.136 27.136t51.2 51.712 55.808 56.32 48.64 47.616 21.504 18.944q7.68 0 7.68-8.192v-79.872h24.576q59.392 0 82.944 18.432t23.552 76.8v134.144l114.688 114.176v-263.168q0-91.648-43.52-142.336t-133.12-50.688h-280.576z" horiz-adv-x="491"/>
<glyph unicode="&amp;" d="M0 147.712v137.728q0 13.312 9.728 23.040t22.528 9.728q13.312 0 23.040-9.728t9.728-23.040v-137.728q0-13.312-9.728-23.040t-23.040-9.728-23.040 9.728-9.728 23.040zM88.576 96.512v214.016h293.888v-214.016q0-13.312-9.728-23.040t-23.040-9.728h-229.376q-13.312 0-23.040 9.728t-9.728 23.040zM88.576 334.592h293.888q0 58.88-43.52 96.768t-103.424 37.888-103.424-37.888-43.52-96.768zM140.288 496.384q0 4.096 3.584 4.096 1.536 0 3.584-1.024l25.088-45.568-7.68-4.096q-24.576 45.056-24.576 46.592zM147.968 83.2q0 13.824 9.728 23.040t24.064 9.216q12.8 0 22.528-9.728t9.728-22.528v-103.424q0-14.336-9.728-23.552t-24.064-9.216q-13.312 0-23.040 9.728t-9.728 23.040v103.424zM150.528 400.64q0 8.192 6.144 14.336t14.336 6.144 14.336-6.144 6.144-14.336q0-8.704-6.144-14.848t-14.848-6.144q-8.192 0-14.336 6.144t-6.144 14.336zM257.024 83.2q0 13.824 10.24 23.040t24.064 9.216q13.312 0 23.040-9.728t9.728-23.040v-103.424q0-14.336-9.728-23.552t-24.064-9.216q-13.312 0-23.040 9.728t-9.728 23.040v103.424zM280.064 400.64q0 8.192 6.144 14.336t14.336 6.144 14.336-6.144 6.144-14.336q0-8.704-6.144-14.848t-14.336-6.144-14.336 6.144-6.144 14.336zM298.496 453.888q1.024 1.536 7.168 14.848t12.288 22.528 9.728 9.728 3.584-4.608v-1.024l-24.576-45.568zM406.528 147.712v137.216q0 13.312 9.728 23.040t23.040 9.728 23.040-9.728 9.728-23.040v-137.216q0-13.312-9.728-23.040t-23.040-9.728-23.040 9.728-9.216 23.040z" horiz-adv-x="471"/>
<glyph unicode="'" d="M0 224.512q0 54.784 14.848 103.424 14.336 47.104 42.496 81.408 28.672 34.304 69.12 52.224 41.472 18.432 91.136 18.432 65.536 0 111.104-31.232 46.080-30.208 69.632-80.384 23.552-48.64 23.552-100.352 0-47.616-24.064-61.44t-67.584-13.824h-216.576q0-43.52 15.36-75.776 14.848-33.28 38.912-49.152 25.6-16.896 54.272-16.896 20.992 0 36.352 5.12 15.872 5.12 31.744 16.896 15.872 11.264 28.672 24.064t33.792 35.328q7.68 8.192 24.064 8.192 17.408 0 27.648-10.752 10.752-10.752 10.752-29.696 0-16.384-11.776-39.936-10.752-22.016-35.84-43.52-23.552-20.992-59.392-34.816-36.352-13.824-82.432-13.824-107.008 0-166.4 69.12-59.392 69.632-59.392 187.392zM113.664 264.448h200.704q-3.584 64-30.72 96.256-26.112 31.744-69.632 31.744-41.984 0-68.096-32.256-26.624-32.256-32.256-95.744z" horiz-adv-x="422"/>
<glyph unicode="*" d="M0 358.144q0 12.8 8.192 23.552t20.992 13.824l100.864 24.064q-32.256-36.864-32.256-86.016 0-94.72 129.536-144.896 14.336-5.632 27.648-12.8t28.16-17.408 23.552-24.064 9.216-28.672q0-22.016-17.92-34.304t-40.96-12.288q-29.696 0-61.952 11.776t-53.76 31.232l-40.448-91.648q28.672-15.872 73.728-31.232-5.12-1.024-16.384-4.608t-19.968-5.12-16.384-2.048q-12.8 0-23.552 8.192t-13.824 20.992l-83.968 351.744q-1.024 6.144-1.024 9.216zM214.528 334.592q0 19.456 17.92 30.208t38.912 10.752q25.088 0 56.32-9.216t45.056-24.064l31.232 87.040q-46.080 24.576-95.232 32.256 1.024 0 23.040 6.144t36.864 9.216 22.016 3.072q12.8 0 23.552-8.192t13.824-20.992l83.968-351.744q1.024-6.144 1.024-9.216 0-12.8-8.192-23.552t-20.992-13.824l-74.24-17.408q24.064 35.84 24.064 77.824 0 56.832-36.352 93.696t-94.72 56.32q-87.552 29.696-87.552 71.68z"/>
<glyph unicode="+" d="M0 61.184q0 44.544 45.568 79.36t110.080 34.816h27.648q-21.504 20.48-21.504 44.032 0 14.848 8.192 29.696-5.12-0.512-14.848-0.512-53.248 0-87.040 33.28t-33.792 81.92q0 46.592 41.984 81.408t95.744 34.816h158.72l-35.328-25.6h-50.176q24.064-9.216 37.888-34.816t13.824-56.832q0-47.616-45.056-82.944-18.944-14.848-24.576-23.552t-5.632-21.504q0-9.728 13.824-24.576t27.648-25.088q31.232-22.016 43.52-45.056t12.288-57.856q0-46.080-41.984-80.384t-113.664-34.304q-68.096 0-115.2 25.6t-47.104 67.584zM57.344 78.080q0-35.328 30.208-60.416t74.752-25.088q60.928 0 88.576 22.528t27.648 59.904q0 9.728-2.048 16.384-1.536 5.632-3.584 10.752t-6.144 9.728-7.168 8.192-10.24 8.704-10.752 7.68-12.8 9.216-13.312 9.216q-19.968 6.144-39.424 6.144-46.080 0.512-80.896-24.064t-34.816-58.368zM91.136 364.288q5.632-40.448 31.232-69.632t56.32-29.696q30.208-1.024 48.128 26.624t12.8 68.096-30.72 68.608-56.32 29.184-48.64-26.112-12.8-67.072zM375.296 352v25.6h102.4v102.4h25.6v-102.4h102.912v-25.6h-102.912v-102.912h-25.6v102.912h-102.4z" horiz-adv-x="606"/>
<glyph unicode="," d="M0 391.424v10.752l1.024 1.024h127.488l1.024-1.024v-10.24q0-4.096-5.12-4.096l-13.312-0.512q-16.896-0.512-16.896-10.24 0-6.656 3.584-14.336 25.6-62.464 113.664-247.808l3.072-0.512 56.832 113.152q-6.656 15.36-11.264 25.088l-38.912 76.8-10.24 20.48q-13.312 26.112-17.408 31.232t-16.896 7.168q-7.168 1.024-7.168 3.584v10.752l1.536 1.024h100.864l2.56-0.512v-10.752q0-4.096-5.12-4.096l-7.68-1.024q-6.656-1.024-9.728-2.56t-3.072-6.144 2.048-9.216 7.68-15.872l37.376-76.8 41.472 82.944q8.192 16.384 2.56 22.016-3.072 4.096-18.944 5.632l-4.608 0.512q-2.048 0-3.584 1.536-1.536 0.512-1.536 3.072v9.728l1.536 1.024q29.184 0.512 95.232 0l1.024-1.024v-10.24q0-4.096-4.608-4.096-11.264-0.512-15.872-2.56t-8.704-8.192q-11.776-17.408-15.36-24.576l-53.76-100.352-1.536-3.584 65.536-134.144 4.096-1.536 103.424 246.272q6.144 14.336-1.536 20.992-6.656 6.144-19.968 6.656l-9.728 0.512q-1.536 0-3.072 1.536-2.048 1.024-2.048 3.072v10.24l1.536 1.024h117.248l1.024-1.024v-10.24q0-3.584-4.608-4.608-23.552-1.024-33.792-9.728-10.24-8.192-17.408-25.088l-128-290.304q-5.12-11.776-11.776-15.872t-12.288 0.512-11.776 15.872q-19.456 38.4-62.464 134.656-53.76-110.592-67.072-135.168-20.992-36.352-36.352-0.512-16.384 38.4-66.56 145.92t-66.56 146.944q-8.192 21.504-14.336 26.624-5.632 5.12-26.624 6.656-7.168 1.024-7.168 3.584z" horiz-adv-x="567"/>
<glyph unicode="-" d="M0 423.168q-0.512 5.632 3.072 10.752t7.168 8.704 12.288 8.192 13.824 6.656 16.896 7.168 17.92 7.68q27.648 11.264 49.664 8.192t27.648-17.92q12.8-34.304 52.736-163.84t59.392-185.344q137.216 45.056 166.912 53.76 8.192 3.072 19.456 2.048t16.896-11.776q11.776-24.064 16.896-50.688t0.512-38.4q-9.728-7.68-30.72-16.384t-38.912-14.848-46.080-14.848-37.888-11.776q-5.12-1.536-19.456-6.656t-27.136-9.728-29.696-9.728-31.232-9.216-27.648-6.144-23.040-2.048-13.312 4.608q-9.216 9.216-16.384 26.624t-14.848 44.544-9.728 33.792q-21.504 64-57.856 173.568t-53.248 160.256q-3.072 6.656-3.584 12.288z" horiz-adv-x="482"/>
<glyph unicode="." d="M0-7.424v396.8h47.104q0 14.848 0.512 19.968t2.048 16.384 6.144 15.36 12.8 8.704 20.992 4.096 20.992-4.096 12.288-8.192 6.144-15.872 2.048-16.384v-19.968h28.16v19.968t2.048 16.384 6.144 15.872 12.288 8.192 20.992 4.096q9.216 0 15.872-2.048t11.264-4.608 7.68-8.704 4.608-9.728 2.048-12.8 1.024-12.8v-14.336h27.648v14.336t1.024 12.8 2.048 12.8 4.608 9.728 7.68 8.704 11.264 4.608 15.872 2.048q12.288 0 20.992-4.096t12.288-8.192 6.144-15.872 2.048-16.384v-19.968h47.104v-396.8h-397.312zM33.28 83.2v-57.344h71.168v57.344h-71.168zM33.28 94.464h71.168v60.928h-71.168v-60.928zM33.28 166.656h71.168v66.56h-71.168v-66.56zM33.28 243.968h71.168v57.344h-71.168v-57.344zM69.632 347.904q0-16.896 18.944-16.896t18.944 16.896v66.56q0 16.896-18.944 16.896t-18.944-16.896v-66.56zM115.2 83.2v-57.344h77.824v57.344h-77.824zM115.2 94.464h77.824v60.928h-77.824v-60.928zM115.2 166.656h77.824v66.56h-77.824v-66.56zM115.2 243.968h77.824v57.344h-77.824v-57.344zM179.712 347.904q0-16.896 18.944-16.896 19.456 0 19.456 16.896v66.56q0 16.896-19.456 16.896-18.944 0-18.944-16.896v-66.56zM203.776 83.2v-57.344h77.824v57.344h-77.824zM203.776 94.464h77.824v60.928h-77.824v-60.928zM203.776 166.656h77.824v66.56h-77.824v-66.56zM203.776 243.968h77.824v57.344h-77.824v-57.344zM289.792 347.904q0-16.896 19.456-16.896 18.944 0 18.944 16.896v66.56q0 16.896-18.944 16.896-19.456 0-19.456-16.896v-66.56zM292.352 83.2v-57.344h71.68v57.344h-71.68zM292.352 94.464h71.68v60.928h-71.68v-60.928zM292.352 166.656h71.68v66.56h-71.68v-66.56zM292.352 243.968h71.68v57.344h-71.68v-57.344z" horiz-adv-x="398"/>
<glyph unicode="/" d="M0 118.016v92.672h114.688v-91.648q0-14.336 10.24-25.088t25.088-10.752 25.6 10.24 10.752 25.088v216.576q0 59.904 44.544 102.4t105.472 42.496 105.472-42.496 44.544-102.912v-47.104l-68.608-20.48-45.568 21.504v40.96q0 14.848-10.24 25.088t-25.088 10.24-25.6-10.24-10.752-25.088v-213.504q0-61.44-44.032-104.96t-105.472-43.52q-61.952 0-105.984 44.032t-44.032 106.496zM370.688 116.48v93.696l45.568-21.504 68.608 20.48v-94.208q0-14.848 10.24-25.6t25.088-10.752 25.088 10.752 10.24 25.6v95.744h114.688v-92.672q0-61.952-44.032-105.984t-105.984-44.032-105.984 43.52-44.032 104.96z" horiz-adv-x="670"/>
<glyph unicode="0" d="M0 165.632h60.928q2.56-20.48 15.36-32.768t33.28-12.288q24.576 0 39.424 16.896t14.848 41.984q0 24.576-14.336 40.448t-38.4 15.872q-19.456 0-33.28-12.8t-26.112-12.8q-27.136 0-40.96 1.024 4.608 26.624 14.848 82.432t14.848 84.48h168.96v-50.176h-124.416q-7.168-36.352-12.288-68.608h1.536q8.704 10.752 26.112 16.384t33.792 5.632q57.856 0 81.92-52.736 12.288 30.72 36.864 48.128t56.832 17.408q25.088 0 46.592-10.24t33.792-21.504 32.256-33.792q1.536-1.536 2.56-2.56t2.048-2.56l2.56-2.56q17.92 20.48 25.6 28.672t23.552 20.992 31.744 17.92 35.84 5.12q46.080 0 74.24-31.232t28.16-77.824q0-47.616-28.16-79.872t-75.264-32.256q-59.392 0-115.712 67.072-3.584-3.584-19.968-19.968t-22.016-20.48-18.944-13.312-26.624-11.776-29.696-3.072q-32.256 0-56.832 16.896t-37.888 47.104q-31.744-65.536-103.936-65.536-48.64 0-80.384 24.576t-31.744 71.168zM263.68 180.992q0-21.504 13.312-34.816t34.816-13.312q38.4 0 79.36 48.64-17.408 17.92-24.576 25.088t-24.576 16.896-32.768 10.24q-19.968 0-32.768-15.872t-12.8-36.352zM462.848 180.992q13.824-14.848 23.552-23.552t25.088-16.896 31.744-8.192q22.016 0 34.816 14.336t12.8 36.352q0 21.504-13.312 35.84t-34.816 14.336q-12.8 0-25.088-6.144t-18.944-11.264-19.456-18.432-16.384-16.896z" horiz-adv-x="646"/>
<glyph unicode="1" d="M0 296.192q0 32.256 13.824 64t38.912 58.88 66.56 44.032 91.648 16.896q81.408 0 133.632-50.176t52.224-118.272q0-87.552-44.544-144.896t-114.688-57.344q-23.040 0-43.52 10.752t-28.672 26.112l-20.48-80.896q-2.56-9.728-6.656-19.968t-9.216-19.456-9.728-17.408-9.728-15.36-8.704-12.288-6.656-8.704l-3.072-4.096q-1.536-2.048-4.096-1.536t-3.072 3.072q0 0.512-1.024 7.168t-1.536 14.336-1.536 19.456-0.512 23.040 1.536 24.576 4.096 24.576q5.632 24.064 37.888 160.256-4.096 8.192-6.656 19.968t-2.56 18.944l-0.512 7.68q0 32.768 16.896 54.784t40.448 22.016q18.944 0 29.696-12.8t10.752-31.744q0-11.776-4.608-29.184t-11.776-39.424-10.24-36.352q-5.12-23.040 9.216-39.936t37.888-16.896q40.448 0 67.072 46.080t26.624 111.104q0 49.664-32.256 81.408t-90.112 31.744q-64.512 0-104.96-41.472t-40.448-99.328q0-34.304 19.456-57.856 6.656-7.68 4.096-16.384-1.024-2.56-3.072-11.776t-3.072-11.776q-1.024-5.632-5.12-7.68t-9.216 0.512q-30.208 12.288-45.568 42.496t-15.36 70.144z" horiz-adv-x="397"/>
<glyph unicode="2" d="M8.192 285.952q16.896 67.584 64.512 116.736t113.152 68.096 133.12 2.048 116.736-64.512 68.096-113.152 2.048-133.12-64.512-116.736-113.152-68.096-133.12-2.048-116.736 64.512-68.096 113.152-2.048 133.12zM124.928 147.2l36.864-9.216q3.584-0.512 10.24-2.56t9.728-2.56l-11.776-46.592 28.16-7.168 11.264 46.080q3.072-1.024 10.752-3.072t11.776-3.072l-11.264-46.080 28.16-6.656 11.264 46.592q24.576-4.096 44.032-4.096t33.792 10.752 22.016 31.232q16.384 46.080-26.112 68.096 30.72 6.656 35.84 40.96 6.656 44.032-56.32 64.512l11.776 46.592-28.16 6.656-11.264-45.056q-4.096 1.024-11.776 3.072t-10.752 3.072l11.264 45.056-28.16 7.168-11.264-46.080q-7.68 1.024-17.92 4.096l-38.912 9.728-7.168-30.208 19.968-4.608q14.336-3.584 13.312-16.384l-13.312-52.736q1.024 0 3.072-1.024-0.512 0.512-1.536 0.512t-1.536 0.512l-18.432-73.728q-2.56-9.216-12.8-6.656l-20.48 5.12zM218.624 158.976l15.36 61.952q0.512 0 10.24-2.048t14.336-3.584 14.336-4.608 14.848-6.656 10.752-8.704 7.68-11.264-0.512-14.336q-1.536-5.632-4.608-9.728t-7.68-6.144-9.728-3.584-11.776-1.536-12.288 1.024-12.288 2.048-11.264 2.56-10.24 2.56-7.68 2.048zM241.152 249.088l13.824 56.32q1.536-0.512 6.656-1.536t8.704-2.048 9.216-2.56 9.728-3.584 9.216-4.608 7.68-5.632 6.144-7.168 3.072-8.704-1.024-10.24q-1.536-6.656-5.632-11.264t-9.728-6.144-11.776-2.56-13.824 0.512-12.288 2.048-11.776 3.072-8.704 2.048z" horiz-adv-x="513"/>
<glyph unicode="3" d="M0 376.064h39.424l54.784-185.856 36.864 124.928-17.92 60.928h39.424l54.784-185.856 54.784 185.856h148.48v-18.432l-55.808-96.256q29.696-10.24 44.032-34.304 15.36-25.6 15.36-58.368 0-41.984-22.016-70.144t-57.344-28.16q-26.112 0-46.080 16.896-19.968 17.408-28.672 45.568l30.72 12.8q6.656-17.408 17.92-27.648 10.24-9.728 26.112-9.728t26.624 17.408q11.264 17.408 11.264 43.008 0 26.624-11.776 42.496-13.824 17.408-42.496 17.408h-15.36v18.432l52.736 91.136h-63.488l-3.584-6.144-77.824-261.632h-3.584l-56.32 189.44-56.832-189.44h-3.584zM418.816 162.56l9.216-25.6q7.68-16.896 16.896-29.696 21.504-29.696 48.128-34.304 23.040-4.608 45.056 9.216 9.728 6.144 17.92 15.872 10.24 10.24 14.336 18.432 2.048 3.584 5.632 10.24l-5.632 30.208q-4.096-8.192-8.192-14.336t-6.144-8.704l-2.048-2.048q-17.408-18.944-31.232-25.088-16.896-7.68-34.816-5.632-13.824 1.024-30.72 12.288-18.432 15.872-22.016 22.016-6.656 9.216-16.384 27.136zM432.64 262.4q0 43.008 16.896 74.752 8.192 15.36 19.456 24.576t22.016 10.24q17.92 2.048 35.84-13.312 9.216-7.68 18.944-25.6l22.528 44.544 6.144-38.912-22.528-43.52q-4.096 8.192-9.728 15.36t-9.216 10.24l-4.096 3.072q-15.872 11.264-32.768 7.68-12.288-2.56-24.576-15.36t-17.92-30.208q-9.728-28.16-9.728-54.272-0.512-20.48 2.56-32.256-6.144 11.264-9.728 27.136t-3.584 26.112z" horiz-adv-x="576"/>
<glyph unicode="4" d="M0 254.72q0 53.76 39.424 92.16t94.72 38.4q43.52 0 78.336-24.576t48.64-63.488l33.792 32.768 80.896-77.824 223.744 228.352v-207.36l-136.704-105.472 17.408-18.432-185.856-180.736-161.792 157.184q-54.784 1.024-93.184 38.912t-38.4 90.624zM18.944 254.72q0-46.080 33.28-78.336t80.384-32.256q16.896 0 33.28 4.608l112.64-99.84 299.52 235.52 0.512 154.624-295.936-305.152-46.080 74.752q10.24 22.016 10.24 46.080 0 45.568-33.792 78.336t-80.896 32.768-80.384-32.768-33.28-78.336zM43.52 253.696q0 35.84 25.6 61.44t61.44 25.6 61.44-25.088 25.6-61.44q0-35.84-25.6-61.44t-61.44-25.6-61.44 25.6-25.6 61.44z" horiz-adv-x="599"/>
<glyph unicode="5" d="M0 377.088h357.888l-33.792-363.52-145.408-41.472-145.408 41.472zM33.28 407.808v68.096h23.040v-22.528h20.48v22.528h22.528v-68.096h-22.528v22.528h-20.48v-22.528h-23.040zM66.56 302.848l12.288-136.192 0.512 1.024h153.6l-5.12-57.856-49.152-13.824-49.664 14.336-3.072 34.816h-45.056l6.144-69.632 91.648-26.112 91.648 26.112 12.8 136.704h-163.328l-4.096 45.568h171.52l4.096 45.056h-224.768zM109.568 452.864v23.040h62.464v-23.040h-19.968v-45.056h-22.528v45.056h-19.968zM181.76 407.808v68.096h24.064l13.824-23.552 14.336 23.552h24.064v-68.096h-22.016v34.816l-16.384-25.6v0.512l-15.36 24.064v-33.792h-22.528zM269.824 407.808v68.096h22.528v-45.056h31.744v-23.040h-54.272z" horiz-adv-x="358"/>
<glyph unicode="6" d="M0.512 43.776q-1.536 18.432 3.584 30.72 19.968 71.68 47.104 122.368 58.368 110.592 160.256 180.224v7.168q-30.208-12.8-60.928-33.792t-52.224-41.472-38.912-39.936-26.112-30.72l-8.704-11.776q-1.024 30.208 8.192 58.88t23.040 48.128 28.16 34.304 24.064 22.016l9.728 6.656q2.048 1.024 5.632 3.072t14.336 7.168 22.528 9.728 28.16 8.704 32.768 6.144 35.84 1.024 37.888-6.144q32.768 24.064 66.048 37.376t50.176 14.848l16.896 1.536q25.6 2.56 39.936-8.704t15.872-28.16-0.512-34.816-6.144-30.72l-4.608-12.288-2.56 2.56q10.752 29.184 10.752 48.128t-9.216 29.184-18.944 14.848-18.944 5.12l-8.192 1.024q-2.048 0-6.144-0.512t-16.384-2.56-25.088-6.656-31.232-12.8-35.328-20.992q35.328-5.632 62.976-21.504t44.032-36.352 28.16-43.52 15.872-45.568 6.656-39.936 2.048-28.672l-0.512-11.264h-285.184q-1.536-21.504 5.632-37.376t17.408-23.552 20.992-11.776 18.432-4.608l7.68-0.512q2.048 0 6.144 0.512t13.824 3.072 17.92 7.168 15.872 14.848 11.264 24.064h149.504q-8.192-30.208-24.064-54.784t-34.816-39.936-39.936-26.112-40.448-16.384-34.816-8.192-25.088-3.584h-9.728q-39.936 0-54.784 3.072-30.72-24.064-65.024-37.888t-53.248-15.36l-18.432-1.536q-23.552 0-39.936 12.288t-21.504 28.672-6.656 34.816zM39.424 46.848q-0.512-12.288 1.536-22.016t4.096-14.848l2.048-4.608q2.048-1.536 5.632-4.096t17.408-7.168 29.184-4.096 41.984 8.704 55.296 25.6q-4.096 1.024-11.264 3.072t-26.112 9.216-35.328 16.384-34.304 24.576-27.648 33.28q-11.264-17.408-16.896-34.304t-6.144-29.184zM184.32 263.936h135.68q0.512 18.432-6.144 32.256t-16.384 19.968-19.968 9.728-16.896 4.096l-7.168 0.512q-3.072 0-7.68-0.512t-16.896-4.096-21.504-9.728-16.896-19.968-7.168-32.256z" horiz-adv-x="483"/>
<glyph unicode="7" d="M1.024 348.416q1.024 8.704 7.68 16.384l61.44 61.44q7.168 6.144 10.752-2.048l49.664-93.184q4.096-8.192-2.56-15.872l-22.528-22.528q-6.144-6.144-7.168-15.872 0-15.36 15.872-39.424t31.232-40.96l15.872-16.384q7.168-7.168 18.432-17.92t37.376-27.648 40.96-17.408q9.728 0 16.384 6.656l26.624 26.624q7.168 7.168 15.36 2.048l89.6-52.736q3.584-2.048 4.096-5.632t-2.048-6.144l-61.44-61.44q-7.68-6.656-16.384-7.68-25.088-3.584-56.832 7.168t-58.368 28.16-50.176 35.328-36.864 30.72l-13.312 12.8q-5.12 5.12-13.824 14.336t-29.696 35.328-36.352 51.712-26.624 57.344-7.68 57.344z" horiz-adv-x="410"/>
<glyph unicode="8" d="M0 224q0 69.632 34.304 128.512t93.184 93.184 128.512 34.304 128.512-34.304 93.184-93.184 34.304-128.512-34.304-128.512-93.184-93.184-128.512-34.304-128.512 34.304-93.184 93.184-34.304 128.512zM66.048 224q0-33.28 18.432-39.424 2.56-1.024 8.704-2.048 21.504-0.512 43.52 20.48 20.992 18.432 29.696 46.080 12.8 39.424 5.12 102.4-1.024 6.144-1.024 8.704-1.536 3.072 0 4.608 0.512 1.536 6.656-0.512 19.456-5.12 39.936-14.848 23.552-10.752 52.224-35.84 23.040-19.968 44.544-45.568 16.896-19.968 40.96-53.248 20.992-29.184 45.056-39.424 14.848-5.12 24.576-3.584t14.848 10.24 7.68 18.944 2.56 23.040q0 24.576-6.144 49.152-1.536 6.144-4.096 14.336-7.168 22.016-20.992 43.008-26.624 40.448-69.632 63.488t-91.136 23.040q-33.792 0-64-11.264-40.96-14.336-72.192-45.568t-45.568-72.704q-0.512-2.56-2.048-7.68t-2.56-7.168q-6.144-25.6-5.632-49.152z"/>
<glyph unicode="9" d="M0 408.32q-0.512 2.56 1.536 5.12t4.608 3.072q5.632 1.024 15.872 3.584t14.336 3.584q0 8.704 0.512 25.6t0.512 25.088q1.024 6.144 6.656 6.144 7.168 0 7.168-7.168-1.024-30.72-1.024-46.592 5.632 1.024 17.92 3.584t17.92 4.096q9.216 2.048 28.16 5.12t28.672 5.12q205.824 35.328 406.528 36.864 3.072 0 5.12-2.56t1.536-5.632q0-5.632-1.024-16.896t-1.024-16.896q21.504-1.536 65.536-5.632 2.56 0 4.608-2.56t1.536-5.12q-11.776-70.144-34.816-210.944t-34.816-211.456q25.6-4.096 38.912-6.144 4.096-0.512 5.632-4.096t-0.512-6.656-5.12-3.072h-1.536q-6.656 1.024-19.968 3.584t-19.968 3.584q-0.512-6.144-2.56-15.872-1.024-4.608-5.12-5.632-0.512-0.512-2.048-0.512h-2.048q-152.064 38.4-307.2 59.904-51.2 1.024-76.288 1.024-28.16 0-84.48-1.024v-0.512q0.512-0.512 0.512-1.024 0.512-3.072-2.048-5.632t-5.632-2.56q-5.632 0-6.144 5.632 0 2.56-1.024 8.192t-1.536 8.704h-6.656q-4.096 0-5.632 3.584t0.512 7.168 6.144 3.584h4.096l-3.072 27.648q-3.072 20.48-12.8 99.84t-18.432 129.024-22.016 97.792zM15.36 404.224q10.752-39.936 22.016-102.912-1.536 35.84-1.536 107.008-8.192-1.024-20.48-4.096zM49.664 357.632q0.512-98.816 10.752-217.088 1.536-20.48 5.632-55.808 0.512-4.608 1.536-9.728t2.048-11.264 1.536-9.728q34.304-1.536 98.304-6.656t93.184-6.656q181.248-10.24 247.296-17.92 5.632 81.92 16.896 232.96t15.36 210.432q-239.616-2.048-491.52-54.784-0.512-27.136 0-53.76zM96.768 274.176q0-34.816 22.016-56.832t55.808-22.016q35.328 0 55.808 22.016h1.024q-6.656-35.84-33.28-56.832-20.992-16.896-51.712-19.456-20.48-2.048-26.624-1.024v-38.4q17.92 0 29.184 1.024 54.784 4.096 87.552 34.816 44.544 41.984 44.544 119.296 0 48.128-24.064 78.848t-67.584 30.72q-39.936 0-66.048-27.136t-26.112-64.512zM144.896 277.248q0 23.040 11.776 37.888t30.208 14.848h0.512q22.016 0 33.28-18.432t10.752-46.592q0-8.192-2.56-13.312-13.312-21.504-41.472-21.504-19.456 0-30.72 13.312t-11.264 33.792zM190.464 33.024l49.152-5.12 190.976-20.48q71.68-15.36 107.008-24.576l1.536 9.216q-28.16 4.608-84.48 12.8-127.488 17.92-264.192 28.16zM288.768 274.176q0-34.816 22.016-56.832t55.296-22.016q35.328 0 56.32 22.016h0.512q-6.656-35.84-32.768-56.832-21.504-16.896-52.224-19.456-20.48-2.048-26.624-1.024v-38.4q17.92 0 29.184 1.024 54.784 4.096 87.552 34.816 44.544 40.96 44.544 119.296 0 48.128-24.064 78.848t-67.072 30.72q-39.936 0-66.56-27.136t-26.624-64.512zM336.896 277.248q0 23.040 11.776 37.888t29.696 14.848h0.512q22.016 0 33.28-18.432t10.752-46.592q0-8.192-2.56-13.312-13.312-21.504-41.472-21.504-19.456 0-30.72 13.312t-11.264 33.792zM519.68 8.96q14.336-2.048 22.016-3.072 10.24 61.44 33.28 200.704t35.328 213.504q-6.656 0.512-18.432 1.536t-21.504 2.048-18.432 1.536q-3.072-43.52-13.824-187.904t-15.872-223.232q0-2.56-2.048-4.608-0.512 0-0.512-0.512z" horiz-adv-x="625"/>
<glyph unicode=":" d="M0-32l213.504 512 213.504-512h-188.928v69.12l87.040 43.52-6.656 28.16-80.384-40.448v34.304l50.176 26.624-7.168 29.184-43.008-23.040v44.544h-47.104v-80.384l-44.032 30.208-8.192-32.768 52.224-35.84v-93.184h-190.976z" horiz-adv-x="427"/>
<glyph unicode=";" d="M0 122.624v190.464q0 6.656 6.656 6.656h90.112v66.048q0 7.168 6.656 7.168h50.176v-263.168q0-7.168-6.144-7.168h-147.456zM55.808 165.12h34.304q6.656 0 6.656 7.168v105.472h-34.304q-6.656 0-6.656-7.168v-105.472zM171.008 122.624v190.464q0 6.656 6.656 6.656h50.176v-189.952q0-7.168-6.144-7.168h-50.688zM171.008 350.464v35.328q0 7.168 6.144 7.168h50.688v-35.328q0-7.168-6.144-7.168h-50.688zM247.296 122.624v190.464q0 6.656 6.656 6.656h147.456v-258.048q0-6.656-6.656-6.656h-147.456l0.512 35.328q0 7.168 6.144 7.168h90.112v25.088h-96.768zM303.616 165.12h34.304q6.144 0 6.144 7.168v105.472h-34.304q-6.144 0-6.144-7.168v-105.472zM420.864 90.368q0 7.168 6.656 7.168h90.112v25.088h-96.768v190.464q0 6.656 6.656 6.656h146.944v-258.048q0-6.656-6.144-6.656h-147.456v35.328zM476.672 165.12h34.304q6.656 0 6.656 7.168v105.472h-34.304q-6.656 0-6.656-7.168v-105.472z" horiz-adv-x="575"/>
<glyph unicode="=" d="M0 224q0 69.632 34.304 128.512t93.184 93.184 128.512 34.304 128.512-34.304 93.184-93.184 34.304-128.512q0-51.712-19.456-98.304t-54.784-81.92q-30.72 37.376-74.752 58.368t-93.696 20.992q-54.784 0-101.888-25.6t-77.312-69.12q-42.496 36.352-66.56 87.040t-24.064 108.032zM83.968 297.728q0-8.704 6.144-15.36t15.36-6.656q3.072 0 4.608 0.512 73.728 29.696 152.576 29.696t152.576-29.696q0.512 0 2.048-0.512t2.56-0.512q8.704 0 15.36 6.656t6.656 15.36q0 12.8-11.776 18.944-81.408 32.256-166.912 32.256-87.040 0-168.448-32.768-10.24-6.656-10.24-18.432zM107.52 221.44l3.072-8.192q4.096-6.656 11.776-6.656 1.536 0 4.608 1.024 65.024 28.16 135.68 28.16 71.168 0 136.704-28.672 2.048-1.024 3.584-1.024 7.68 0 11.776 6.656l2.56 8.704q0 6.656-5.12 10.752-70.656 31.744-149.504 31.744-78.336 0-150.016-31.744-5.12-5.12-5.12-10.752zM132.096 147.712q5.12-12.8 15.872-8.192 55.296 26.112 114.688 26.112 57.344 0 112.128-24.576 12.288-6.656 17.92 6.144 2.56 6.656 0 11.776t-7.168 7.68q-54.272 27.136-122.88 27.136-65.536 0-124.928-28.16-9.728-5.12-5.632-17.92zM163.328-14.592q18.944 24.576 47.104 38.912t59.904 14.336q58.368 0 98.816-44.032-53.248-26.624-112.64-26.624-48.128 0-92.672 17.408z"/>
<glyph unicode="&gt;" d="M0 225.536q0 31.744 25.6 54.272t57.856 22.528q31.744 0 53.76-18.432h2.56q68.608 41.984 171.52 41.984l2.56 2.048 35.84 136.704 123.904-18.432q0-0.512 1.024-0.512 0.512 0 0 0.512 1.024 0.512 6.144 8.192t7.68 9.728q17.408 16.384 41.984 16.384 25.088 0 42.496-16.896t17.408-41.984-17.408-43.008-42.496-17.92q-29.184 0-44.544 19.968t-15.36 49.664q-1.024-0.512-50.176 6.656t-56.32 8.704h-1.536q-1.024-1.024-8.704-27.648t-15.36-55.808-9.216-32.768v-1.536l2.56-2.048q36.864 0 75.776-10.752t67.072-29.696l1.536-1.024q0.512 0.512 1.024 0.512t1.024 0.512q12.8 9.216 18.432 12.8t15.36 6.656 22.016 3.072q34.816 0 59.392-24.576t24.576-59.904q0-24.064-13.824-44.032t-35.84-30.72q0-99.84-133.12-155.136-20.992-9.216-28.672-11.776-16.384-5.12-46.592-9.728t-47.616-4.608q-61.44 0-118.272 17.92-1.024 1.024-36.864 19.456-48.64 26.112-78.336 59.392t-29.696 79.872h-2.56q-16.896 8.704-30.208 25.6l-4.608 6.144q-7.68 13.824-9.728 23.552t-2.048 26.112zM17.408 219.392q0-33.792 29.184-57.344 2.56 30.208 24.576 59.392t51.712 51.712q-18.944 13.312-41.984 13.312-25.088 0-44.544-20.992t-19.456-46.592zM69.632 144.64q0-27.648 15.872-53.248t40.96-44.032 52.736-30.72 53.76-17.408q38.4-7.168 74.752-7.168 62.976 0 119.296 20.48t94.72 62.976h-1.536q15.36 19.456 22.016 35.328t6.656 37.376q0 27.648-13.824 52.736t-35.84 43.008-47.104 31.232-51.2 19.968q-43.52 11.776-92.672 11.776-37.888 0-77.824-9.216t-76.8-27.648-60.928-51.2-23.552-73.728zM164.864 182.016q0 18.944 11.776 30.72t30.72 11.776 31.744-11.776 12.8-30.72q0-18.432-13.312-30.72t-31.744-12.288-30.208 12.288-11.776 30.72zM183.296 98.048h22.528q12.8-23.040 40.96-35.328t57.344-12.288q29.696 0 56.32 12.288t43.008 35.328h20.992q-12.8-31.744-47.616-49.152t-72.704-17.408q-36.864 0-72.704 17.92t-48.128 49.152zM355.328 182.016q0 19.456 11.776 30.72t31.232 11.264q17.408 0 29.696-12.288t12.288-29.696-12.288-30.208-29.696-12.8q-18.944 0-31.232 12.288t-12.288 31.232zM485.888 421.632q0-17.92 12.8-30.72t30.72-12.8q18.432 0 30.208 12.8t11.776 31.232q0 17.408-12.288 29.696t-29.696 12.288-30.72-12.8-13.312-29.696zM493.056 277.76q28.16-18.432 48.64-47.616t28.672-61.44q30.208 22.016 30.208 49.152 0 29.696-18.432 51.2t-47.616 21.504q-23.040 0-41.984-13.312z" horiz-adv-x="617"/>
<glyph unicode="?" d="M0 100.096q0 11.264 6.144 32.768 11.776 44.544 44.544 80.896t75.776 52.736q-40.448 32.256-40.448 82.432 0 44.032 32.256 74.752t76.288 30.72 76.288-30.72 32.256-74.752q0-49.664-39.424-81.92 54.272-19.456 90.624-65.024t36.352-101.376q0-47.104-37.376-54.272-1.536-5.12-6.656-13.312-3.072-8.192-12.288-14.848t-25.088-10.752-25.6-6.144-29.184-4.608-19.968-2.56q-1.024 0-3.584-0.512t-3.584-0.512h-61.44q-26.112 0-66.048 8.704t-45.568 23.040q-8.704 8.704-12.8 21.504-12.8 2.56-21.504 10.752-19.456 7.68-19.456 43.008z" horiz-adv-x="389"/>
<glyph unicode="@" d="M0 217.856v52.736q0 44.544 44.032 102.4t87.552 81.92q39.936 22.528 95.744 22.528 22.528 0 45.568-5.12t44.032-15.872 34.304-29.696 13.312-43.52q0-6.656-1.024-12.8t-3.584-12.288-4.608-10.752-7.168-10.752-7.168-9.728-9.216-10.24-8.704-8.704-9.728-9.216-9.216-8.192h86.016q1.024-36.864 1.024-55.296 0-129.536-21.504-166.912-17.92-31.232-48.64-55.296t-65.536-35.84q-19.968-7.68-28.672-7.68h-43.008q-1.536 0-24.576 8.704-61.44 27.136-61.44 89.088 0 2.048 0.512 5.632t0.512 5.12q-68.608 35.328-92.16 110.080-6.656 21.504-6.656 28.672zM74.752 284.416q0-20.48 5.12-41.472t14.848-40.448 27.136-31.744 39.424-12.288q6.144 0 20.48 7.68t25.6 7.68q7.168 0 26.112-5.632t18.944-10.24q0-10.752-13.312-10.752-66.56 0-66.56-38.912 0-29.696 21.504-45.056t52.736-15.36q24.064 0 47.104 8.704t37.376 25.6q21.504 25.6 21.504 83.968 0 9.728-0.512 28.672t-0.512 28.16q0 24.576 2.56 40.96h-98.816q-0.512-4.096-0.512-11.776 0-5.632 0.512-17.408t0.512-17.92q0-17.92-4.096-28.672-2.56-0.512-8.704-0.512-24.576 0-40.96 16.896t-22.528 38.4-6.144 45.568q0 23.040 6.144 46.592t22.016 43.008 39.936 19.456q5.12 0 10.752-1.536-2.048-11.264-2.048-17.408 0-17.92 9.728-29.696t27.136-11.776 29.184 11.776 11.776 29.696q0 20.992-15.872 35.84t-35.84 20.48-40.448 5.632q-69.12 0-114.176-43.52t-45.056-112.128z" horiz-adv-x="391"/>
<glyph unicode="A" d="M0.512 224.512q-0.512-9.216-0.512-18.432 0-34.816 10.24-73.728 13.312-49.664 42.496-94.208 45.568-69.632 88.064-70.144 15.36 0 39.936 10.752t48.64 10.752h2.048q23.552 0 46.592-10.24 24.064-11.264 38.912-11.264 25.088 0.512 46.592 20.992t43.52 53.248q15.872 24.576 33.28 61.952-25.6 9.728-43.52 29.184t-24.576 43.52q-5.12 17.92-4.608 35.84v12.288q2.048 24.576 17.408 47.104t40.448 36.352q-19.456 24.576-45.568 38.4t-52.736 13.824q-24.576 0-54.272-11.264t-44.032-11.264q-15.36 0-46.592 11.264t-52.224 11.264q-29.696 0-58.88-17.408t-49.152-47.616q-18.944-28.672-22.528-71.168zM212.992 356.608q-1.536 7.68-1.536 15.36 0 33.28 27.136 66.048 13.824 16.896 35.84 28.672t42.496 13.312q1.024-7.68 1.024-15.36 0-35.328-25.6-67.584-14.336-18.432-35.84-29.696-20.992-11.264-40.96-10.752h-2.048z" horiz-adv-x="441"/>
<glyph unicode="B" d="M0 129.28v188.928q0 66.56 47.616 114.176t114.176 47.616h113.152q33.28-4.096 71.168-29.184t53.76-58.88q0.512-1.024 2.56-5.12t2.56-5.12 2.048-5.12 2.048-6.656 2.048-8.192 2.048-11.264 2.048-14.848q4.608-35.84 13.312-43.52 7.168-6.656 36.352-7.68t33.28-4.096l7.168-5.632 4.096-8.704 1.536-7.168-1.024-131.072q-0.512-66.56-47.616-114.176t-113.664-47.616h-185.856q-66.56 0-114.176 47.616t-47.616 114.176zM132.608 131.84q0-12.8 9.216-22.016t22.016-9.216h182.272q12.8 0 22.016 9.216t9.216 22.016-9.216 22.016-22.016 9.216h-182.272q-12.8 0-22.016-9.216t-9.216-22.016zM132.608 317.184q0-12.8 9.216-22.016t22.016-9.216h89.6q12.8 0 22.016 9.216t9.216 22.016-9.216 22.016-22.016 9.216h-89.6q-12.8 0-22.016-9.216t-9.216-22.016z" horiz-adv-x="510"/>
<glyph unicode="C" d="M0 224q0 50.176 19.456 97.792 18.944 46.080 56.32 83.456 73.728 74.752 179.712 74.752 107.008 0 182.784-74.752 36.352-36.352 54.784-82.944 18.944-45.568 18.944-98.304 0-53.248-18.432-98.304-18.432-45.568-54.784-81.408-37.888-36.864-84.992-56.832-48.128-19.456-98.304-19.456-49.664 0-97.28 19.456-45.568 18.944-82.944 56.32t-56.32 82.944-18.944 97.28zM46.080 224q0-40.448 16.384-79.36 15.872-38.4 46.592-68.096 30.72-30.72 68.096-45.568 36.864-15.872 79.36-15.872 41.472 0 79.872 15.872 37.888 15.872 69.632 46.080 59.904 58.368 59.904 146.944 0 43.52-15.872 80.384-15.36 38.912-45.056 67.584-61.44 61.952-148.48 61.952-87.552 0-147.456-61.44-30.208-30.208-46.592-68.608-16.384-38.912-16.384-79.872zM110.080 224q0 36.352 21.504 57.856 20.992 21.504 53.76 21.504 47.104 0 68.096-36.864l-34.304-17.92q-5.632 12.288-13.824 15.872-7.68 4.608-14.848 4.608-34.304 0-34.304-45.056 0-19.968 8.704-32.768 9.216-12.288 25.6-12.288 22.528 0 31.744 21.504l31.744-15.872q-10.752-18.432-28.16-29.184-17.92-10.752-39.424-10.752-34.304 0-55.296 20.992t-20.992 58.368zM258.048 224q0 36.352 21.504 57.856t53.76 21.504q47.616 0 67.584-36.864l-33.792-17.92q-5.632 11.776-13.312 15.872-8.704 4.608-15.36 4.608-34.304 0-34.304-45.056 0-20.992 8.704-32.768 8.704-12.288 25.6-12.288 22.016 0 31.232 21.504l32.256-15.872q-11.264-18.944-28.672-29.184-17.92-10.752-38.4-10.752-35.328 0-55.808 20.992-20.992 20.992-20.992 58.368z"/>
<glyph unicode="D" d="M0 224q0 69.632 34.304 128.512t93.184 93.184 128.512 34.304 128.512-34.304 93.184-93.184 34.304-128.512-34.304-128.512-93.184-93.184-128.512-34.304-128.512 34.304-93.184 93.184-34.304 128.512zM42.496 224q0-79.872 53.76-140.8 24.576 48.128 77.824 91.648t103.936 54.784q-7.68 17.92-14.848 32.256-88.064-28.16-190.464-28.16-19.968 0-29.696 0.512 0-2.048-0.512-5.12t-0.512-5.12zM49.152 276.736q11.264-1.024 33.28-1.024 85.504 0 162.304 23.040-38.912 69.12-85.504 115.2-40.448-20.48-69.632-56.832t-40.96-80.384zM125.44 55.552q57.856-45.056 130.56-45.056 37.888 0 75.264 14.336-10.24 87.552-39.936 169.472-47.104-10.24-95.232-51.712t-71.168-87.040zM203.776 430.336q45.056-46.592 83.456-116.224 69.632 29.184 104.96 74.24-59.392 49.152-136.192 49.152-26.112 0-52.224-7.168zM305.664 277.76q7.68-16.384 17.408-41.472 37.888 3.584 82.432 3.584 31.744 0 62.976-1.536-4.096 69.632-50.176 123.904-33.28-49.664-112.64-84.48zM335.872 200.448q26.112-75.776 35.328-155.648 40.448 26.112 66.048 67.072t30.72 88.576q-37.376 2.56-68.096 2.56-28.16 0-64-2.56z"/>
<glyph unicode="E" d="M0 321.792q0 20.48 7.68 29.696 4.608 7.168 13.312 10.752 9.216 4.608 24.064 4.608h48.128q7.68 0 13.312 5.632t5.632 13.312q0 10.752-0.512 22.528v30.208q0 12.8 6.144 22.528 7.68 10.752 25.6 15.872 5.632 3.072 27.136 3.072h9.728q30.208-1.024 50.176-8.704 19.456-8.192 23.040-31.744 13.312 0.512 24.576 0.512 27.136 0 45.568-2.56 49.664-6.144 66.048-12.288 21.504-6.656 27.136-34.304 5.12-28.16 9.216-107.52 2.56-45.568 2.56-75.264 0-22.528-1.536-36.352-8.192-88.064-22.016-130.048-7.168-21.504-14.336-35.328t-14.336-22.016-18.944-11.776-22.016-4.608-30.208-1.024q-55.296 0-74.752 13.312t-19.456 54.784q0 23.040 5.12 36.864t16.896 19.456 24.064 6.656q7.68 0.512 20.48 0.512h14.336q2.048 0 3.072-1.024t0.512-2.56-1.536-4.096-1.536-5.632-1.024-6.656q0-4.608 1.024-9.728t0.512-6.144-3.584-1.536h-10.24t-5.12-0.512-5.12-1.024-4.608-1.536-4.096-2.048-3.072-3.072-2.048-4.608-0.512-6.144q0-7.168 2.048-11.776t4.096-7.168 9.216-3.584 11.264-1.024h16.896q29.184 0 37.376 7.168t8.192 32.768q0 38.912-9.728 52.736t-29.184 16.384q-45.056 4.608-60.928 10.24-27.136 10.24-27.136 60.928 0 1.024-1.536 1.024t-1.536-1.024q0-34.304-9.216-61.44l-4.096-12.288q-5.632-12.8-18.944-13.312h-3.072q-12.288 0-27.648 4.096-65.024 8.192-101.376 24.064-12.288 5.632-18.944 20.48-8.704 17.92-18.432 66.048t-12.288 68.608q-2.048 16.896-2.048 26.112zM3.072 382.72v1.024l93.696 92.16q0 0.512 0.512 0.512l-1.536-3.072q-5.632-10.24-5.632-24.576 0-11.264 0.512-52.736 0-5.12-5.12-5.12h-47.616q-17.408 0-30.208-5.632-2.56-1.536-4.608-2.56zM293.888 234.24q10.752 1.536 23.552 1.536 23.040-0.512 41.472-9.216 0 43.52-31.232 44.544h-1.536q-15.36 0-22.528-10.24-7.68-10.752-9.728-26.624z" horiz-adv-x="429"/>
<glyph unicode="F" d="M0 224q0 53.248 37.376 90.624t90.624 37.376 90.624-37.376 37.376-90.624-37.376-90.624-90.624-37.376-90.624 37.376-37.376 90.624zM282.624 224q0 53.248 37.376 90.624t90.624 37.376 90.624-37.376 37.376-90.624-37.376-90.624-90.624-37.376-90.624 37.376-37.376 90.624z" horiz-adv-x="539"/>
<glyph unicode="G" d="M0 61.184q0 44.544 45.568 79.36t110.080 34.816h27.648q-21.504 20.48-21.504 44.032 0 14.848 8.192 29.696-5.12-0.512-14.848-0.512-53.248 0-87.040 33.28t-33.792 81.92q0 46.592 41.984 81.408t95.744 34.816h158.72l-35.328-25.6h-50.176q24.064-9.216 37.888-34.816t13.824-56.832q0-47.616-45.056-82.944-18.944-14.848-24.576-23.552t-5.632-21.504q0-9.728 13.824-24.576t27.648-25.088q31.232-22.016 43.52-45.056t12.288-57.856q0-46.080-41.984-80.384t-113.664-34.304q-68.096 0-115.2 25.6t-47.104 67.584zM57.344 78.080q0-35.328 30.208-60.416t74.752-25.088q60.928 0 88.576 22.528t27.648 59.904q0 9.728-2.048 16.384-1.536 5.632-3.584 10.752t-6.144 9.728-7.168 8.192-10.24 8.704-10.752 7.68-12.8 9.216-13.312 9.216q-19.968 6.144-39.424 6.144h-2.048q-44.544 0-78.336-24.064-34.816-24.576-34.816-58.368zM91.136 364.288q5.632-40.448 31.232-69.632t56.32-29.696h2.048q28.672 0 46.080 26.624 13.824 21.504 13.824 50.688 0 8.192-1.024 17.408-5.12 40.448-30.72 68.608t-56.32 29.184h-2.048q-29.184 0-46.592-26.112-13.824-20.992-13.824-50.176 0-8.192 1.024-16.896z" horiz-adv-x="331"/>
<glyph unicode="H" d="M0 155.904q0-75.264 51.712-131.584t133.12-56.32q80.896 0 132.608 56.32 51.712 55.296 51.712 131.584 0 39.936-13.824 74.752-20.48-12.8-43.52-17.408 11.264-26.112 11.264-58.368 0-38.912-18.432-72.704-18.944-33.792-50.688-51.712-31.744-18.432-69.12-18.432-38.4 0-69.632 18.432-32.256 18.944-50.176 51.712-18.944 33.28-18.944 72.704 0 59.904 40.96 103.424 40.96 42.496 97.792 42.496 26.112 0 50.176-9.728 2.048 19.968 13.824 44.032-29.184 10.752-64 10.752-81.92 0-136.192-60.416-48.64-54.784-48.64-129.536zM143.36 26.368l28.672-2.048q37.888 24.064 64 55.808t37.376 63.488 15.872 64.512q3.072 20.992 3.072 40.96 0 10.752-1.024 20.48-2.56 28.16-6.656 50.688t-8.192 35.328l-4.608 12.8q-11.264 34.816-22.528 60.928t-16.384 34.304l-5.632 8.704q19.968-10.24 32.256-24.576 11.776-14.848 14.336-27.136 2.048-10.24 2.048-19.968v-3.584q-0.512-11.264-3.072-17.92l-2.56-6.656q2.048-29.696 2.56-57.344 0-26.624-2.56-52.224-4.608-51.2-15.872-85.504t-25.6-62.464-29.696-44.032-28.16-26.624-20.992-14.848zM284.16 352.512q2.048 20.48 11.776 32.768l9.216 12.8q6.144 7.168 19.968 13.824t24.576 9.728l10.752 3.072q18.432 4.096 34.304 17.92t22.528 26.112l6.656 11.776q20.992-29.184 25.088-66.048 2.048-16.384 1.536-29.184 0-17.408-3.072-30.208l-5.632-23.040q-6.144-16.896-17.408-30.72t-18.944-18.944l-7.68-5.632q-17.408-10.24-34.304-10.24l-55.808 27.136q29.696 16.384 51.712 33.28t32.768 29.696 16.896 23.040 7.68 15.872l1.024 5.12q-9.216-20.48-25.088-37.376t-31.744-26.624-31.232-16.896-24.064-9.728l-9.216-2.56q-12.8 22.528-12.8 40.448 0 2.56 0.512 5.12z" horiz-adv-x="450"/>
<glyph unicode="I" d="M0-15.104q52.224 3.072 66.56 13.824 15.36 10.752 15.36 54.784v340.992q0 41.984-15.36 54.272-14.336 11.776-66.56 14.336v14.336h250.368v-14.336q-52.224-2.048-67.072-14.336-15.36-12.288-15.36-54.272v-340.992q0-44.032 15.36-54.784t67.072-13.824v-14.336h-250.368v14.336z" horiz-adv-x="251"/>
<glyph unicode="J" d="M0 135.936q0 82.432 94.208 177.664 59.904 59.392 120.832 82.944 28.672 11.776 49.664 11.776 23.040 0 36.864-13.824 13.312-13.312 13.312-36.864 0-15.872-6.144-36.864-2.048-7.168 1.536-9.216t8.192-0.512l5.12 2.048q49.152 20.48 87.040 20.48t54.272-21.504q7.68-11.264 7.68-26.624 0-15.872-8.192-36.352-3.584-5.12-1.536-8.704t4.096-4.608 7.68-2.56q31.744-9.728 54.272-31.744t22.528-54.784q0-30.208-20.992-61.952t-57.344-57.856-91.136-43.008-117.248-16.896q-67.072 0-126.976 19.968t-99.328 58.88-39.424 89.6zM64 111.36q5.12-51.712 64-82.432 47.104-25.088 107.008-25.088 14.848 0 30.72 1.536 78.336 7.68 130.56 49.664 47.104 38.4 47.104 84.48 0 4.608-0.512 9.216-5.12 51.2-64 81.92-47.616 25.088-107.52 25.088-14.848 0-30.208-1.536-51.712-5.12-93.696-26.112t-64.512-51.712q-19.456-27.136-19.456-55.808 0-4.608 0.512-9.216zM145.92 79.616q-6.656 14.848-6.656 30.208 0 17.92 9.216 35.84 15.872 32.768 53.248 49.152 23.040 10.24 46.592 10.24 13.824 0 27.648-3.584 38.912-10.24 55.808-41.984 8.704-16.384 8.704-33.792 0-16.384-7.68-33.28-15.872-36.352-55.808-53.248-22.528-9.728-45.056-9.728-17.408 0-34.304 5.632-37.376 11.776-51.712 44.544zM174.592 89.344q3.072-12.8 15.36-17.92 6.656-3.072 13.824-3.072 6.144 0 12.288 2.048 14.336 4.608 22.016 16.896 5.12 8.192 5.12 16.384 0 3.584-1.536 7.68-3.072 12.288-15.36 17.408-6.656 2.56-13.312 2.56-6.144 0-12.8-2.048-13.824-4.608-20.992-16.384-5.632-8.192-5.632-16.896 0-3.584 1.024-6.656zM246.784 129.792q1.536-4.608 6.656-6.656 2.56-1.024 5.12-1.024t5.12 1.024q5.632 2.048 8.192 6.656t1.024 9.216-6.144 6.656q-4.608 1.536-10.24-0.512t-8.192-6.656q-1.536-3.072-1.536-6.144v-3.072zM411.136 447.744q-0.512 2.56-0.512 5.12 0 6.656 4.096 12.8 5.12 8.192 14.848 10.752 17.408 3.584 34.816 3.584 26.112 0 51.2-7.68 42.496-13.824 73.216-47.616t39.936-78.336q3.584-17.92 3.584-34.816 0-26.112-8.192-50.176v-0.512q-3.072-9.216-11.776-13.824-5.632-2.56-11.264-2.56-3.584 0-7.68 1.024-9.728 3.072-13.824 11.776-2.56 5.632-2.56 10.752 0 4.096 1.024 7.68v0.512q5.632 17.408 5.632 35.84 0 11.776-2.048 24.576-6.656 31.744-28.672 55.808t-52.224 33.792q-17.92 5.12-35.84 5.12-12.288 0-25.088-2.56-2.56-0.512-5.12-0.512-7.168 0-13.312 4.096-8.192 5.632-10.24 15.36zM431.616 367.36q-0.512 2.56-0.512 5.12 0 5.12 3.072 10.752 4.608 7.168 13.312 9.216 9.728 2.048 18.944 2.048 34.304 0 58.88-27.136 14.848-16.896 19.456-38.4 1.536-8.704 1.536-16.896 0-12.288-4.096-24.576-2.56-8.192-10.24-11.776-4.608-2.56-9.216-2.56-3.584 0-6.656 1.024-8.192 2.56-12.288 10.24-2.048 4.608-2.048 9.216 0 3.584 1.024 6.656 2.048 7.168 2.048 13.312 0 14.336-10.752 25.6-11.264 13.312-27.648 13.312-5.12 0-10.24-1.024-2.56-0.512-4.608-0.512-5.632 0-10.752 3.584-7.168 4.608-9.216 12.8z" horiz-adv-x="633"/>
<glyph unicode="K" d="M0-32v512h131.584v-189.952h117.248q43.52 62.976 131.584 189.952h146.432l-167.936-244.224q0-6.144 49.664-73.216t98.816-131.072l49.152-63.488h-175.616q-24.064 33.792-73.216 102.4t-73.216 102.912h-102.4v-204.8h-131.584z" horiz-adv-x="556"/>
<glyph unicode="L" d="M0 418.56q0 25.6 17.92 42.496t46.592 16.896q28.16 0 45.568-16.384 17.92-16.896 17.92-44.032 0-24.576-17.408-40.96-17.92-16.896-47.104-16.896h-0.512q-28.16 0-45.568 16.896t-17.408 42.496zM6.656-29.44v342.016h113.664v-342.016h-113.664zM183.296-29.44h113.664v190.976q0 17.92 4.096 27.648 7.168 17.408 22.016 29.696t36.864 12.288q57.344 0 57.344-77.312v-182.784h113.664v196.096q0 75.776-35.84 115.2t-94.72 39.424q-66.048 0-102.912-56.832v-1.024h-0.512l0.512 1.024v48.64h-113.664q1.024-16.384 1.024-101.888t-1.024-240.128z" horiz-adv-x="531"/>
<glyph unicode="M" d="M0 244.48q0 17.92 1.024 53.76 12.288 4.096 24.576 4.096h9.216q8.704-11.776 20.48-35.84t15.872-31.232q1.024 3.584 4.096 18.944t5.12 22.016 5.632 18.944 8.192 20.992 10.24 15.872q14.336-2.56 23.552-2.56 3.072 0 5.632 0.512 12.288-27.648 23.552-83.456t19.968-79.36q-0.512 0-2.048 0.512l-1.536 0.512q-4.608 0-13.312-3.072t-11.264-3.584q-20.48 51.712-31.744 103.936-7.68-13.312-7.68-45.568t-5.632-45.056l-2.56 1.024q-4.096 0-11.264-1.024t-10.752-1.024h-9.216q-13.824 24.576-29.184 45.568-1.536-3.072-1.536-7.68t1.536-13.312 1.536-12.8l-0.512-6.144q-15.36-7.68-26.624-7.68-3.584 0-5.12 0.512-8.704 28.672-8.704 72.704zM181.76 205.568q0 13.824 4.096 29.696t14.336 29.184 24.064 13.824q5.12 0 14.336-2.56t11.776-3.072q4.608-20.48 4.608-41.472 0-14.336-3.072-28.16-6.144 2.048-19.456 2.56t-18.944 2.048q-2.56-10.24-2.56-18.944 0-10.752 5.12-18.944t15.36-8.192q4.608 0 13.312 2.56t13.312 2.56q8.704 0 11.776-7.168-21.504-8.192-41.984-8.192-23.552 0-34.816 15.36t-11.264 39.936zM211.456 219.904l4.096 0.512q1.536 0 4.096-1.024t3.584-1.024l3.584 1.536q1.024 7.168 1.024 11.264 0 9.216-2.56 20.48-11.264-12.8-13.824-31.744zM267.776 192.256q0 62.976 39.936 93.184 16.384-1.536 30.72-11.776-0.512-8.704-4.096-34.304-2.56-19.968-2.56-33.28v-7.168q-10.24-1.024-14.848-1.024-4.096 0-22.016 2.56-2.56-6.144-2.56-11.776 0-11.264 8.704-19.456t19.968-8.192q13.312 0 20.992 11.776 9.216-3.072 10.752-8.704-11.264-10.752-32.256-10.752-18.944 0-35.84 10.24t-16.896 28.16zM296.448 214.272q2.048-3.072 7.168-3.072h4.608q4.608 9.728 4.608 25.088 0 6.656-3.072 19.968-1.536-4.096-5.12-12.8t-6.144-15.872-2.56-13.824zM347.136 224q-1.024 13.312 11.776 13.312 3.072 0 9.216-0.512t8.704-0.512q1.536 7.68 1.536 15.872 0 14.848-4.096 44.544t-4.096 44.544q0 22.016 5.12 36.864 2.56-1.536 13.824-3.072t20.992-12.8q-3.072-13.312-3.072-34.304 0-10.24 2.048-41.472 1.024-17.92 1.024-31.232 0-10.24-0.512-17.408h3.072q3.584 0 4.608 3.072t1.024 6.656 2.048 3.584q4.096 0 9.728-4.608t11.776-11.264 7.68-8.192q-4.608-3.584-20.992-4.608t-19.968-2.048q-0.512-6.144-0.512-18.432 0-8.192 0.512-16.896t1.024-19.456 0.512-16.896q-4.096-0.512-11.776-1.024t-11.264-1.024v10.24q0 10.752-1.536 29.184-2.048 22.528-2.048 31.232-3.072 1.024-16.384 2.048t-19.456 5.12zM457.216 228.096q0 10.24 1.024 29.696 5.632-0.512 10.24-2.56t10.752-5.632 9.216-5.12l-0.512-13.824q0-30.208 4.608-59.392 9.728 3.584 15.872 11.776t8.704 21.504 3.072 21.504 1.024 23.040v5.632q1.536-0.512 4.608-0.512 10.24-1.024 25.088-12.8 0-1.536 0.512-5.12t0.512-5.12q0-7.68-2.048-15.36t-4.096-11.264-7.68-12.8-7.168-11.776q-7.68-6.144-17.408-21.504-10.752-3.584-19.456-3.584-36.352 0-36.352 72.704zM559.616 172.8q3.584 3.072 12.288 5.12 0 1.536 0.512 4.608 2.048 17.92 3.584 29.184t6.656 30.208 11.264 30.72 18.432 20.48 27.136 9.216q17.408 0 38.912-12.288 8.704-18.944 8.704-38.4 0-33.792-24.064-60.928t-57.856-34.816q-1.024-16.384-1.024-24.576 0-37.376 9.216-59.904-4.096 1.024-18.944 1.024-7.68 0-11.264 1.024-4.608 10.752-8.704 49.152t-15.36 51.2zM605.696 185.6q19.968 5.12 33.792 24.576t13.824 40.448q0 15.36-7.68 28.672-11.776-10.752-20.48-28.672t-11.776-30.72-7.68-34.816z" horiz-adv-x="687"/>
<glyph unicode="N" d="M0 379.648q5.12 4.096 12.8 6.144 7.168 2.048 12.8 2.048h4.608q5.12 0 12.288-0.512 11.264-0.512 16.384-0.512 3.072 0 19.456 1.024 8.192 0.512 14.848 0.512t11.776-0.512q10.24-1.024 16.384-4.096 3.072-1.536 6.656-6.656t6.144-9.728 6.144-13.312 5.12-11.264q19.456-41.984 48.128-83.456 1.024-1.536 3.584-5.632t4.608-6.656 4.608-6.144 5.632-5.632 5.632-4.608 6.144-3.072 6.144 0q14.336 2.56 15.872 59.904 0.512 9.728 0.512 17.92 0 37.888-7.68 52.224-3.072 5.632-8.192 9.216t-12.8 6.144-11.776 5.632q7.168 14.336 25.6 18.944t49.664 4.608h27.136t13.312-0.512 13.824-1.536l11.264-3.072t10.24-4.608 6.656-7.168q4.608-9.216 5.632-21.504 0-3.584 0.512-7.168 0-10.24-1.536-26.624-2.048-21.504-2.048-26.624-1.536-11.776-1.536-23.552 0-9.216 1.024-19.456 2.048-22.528 15.36-31.232 4.608 0.512 8.704 2.048t8.192 5.632 5.632 6.144 6.656 8.704 5.632 7.168q24.064 31.744 48.128 83.456l4.608 11.776t6.144 13.824 6.144 10.24 8.192 7.168q8.192 3.584 19.456 3.584h4.608q10.24 0 23.552-1.024 16.384-1.024 24.064-1.024 4.608 0 14.336 0.512t16.896 1.024 15.36-0.512 13.312-3.072 7.168-6.656q1.536-3.072 1.536-6.656 0-14.848-17.92-44.544-8.704-14.848-17.92-27.136t-23.552-29.696-18.944-24.064q-1.024-1.024-7.168-9.216t-9.216-12.288-6.144-11.776-2.56-13.824q0-4.096 1.536-7.68t5.12-7.68 5.12-6.144 7.168-6.656 6.144-5.632q36.352-33.28 57.344-59.904 20.48-26.624 20.48-38.4 0-16.896-26.112-20.992-13.312-2.048-27.136-2.048-10.752 0-22.016 1.536-10.24 1.024-18.944 1.024-13.312 0-23.040-2.56h-3.072q-33.792 5.632-71.168 48.128-2.048 2.048-8.704 10.752t-11.264 13.312-11.776 8.704-13.824 3.072q-11.776-2.048-15.872-14.848t-4.608-30.72-5.12-25.088q-6.656-12.288-40.448-12.288-14.336 0-33.792 2.048-39.936 4.096-72.704 20.48t-51.712 34.816-41.472 47.616q-53.248 68.096-100.864 164.864-1.536 3.072-5.632 11.776t-6.144 13.312-5.12 12.288-4.096 14.336-1.536 13.824z" horiz-adv-x="625"/>
<glyph unicode="P" d="M0 166.144q5.12 71.168 86.016 88.576 6.144 45.568 22.016 98.304t36.864 74.752q24.576 25.088 61.44 38.912t74.752 13.824q44.032 0 83.968-19.968t59.904-56.32q9.728-18.432 21.504-67.072t15.872-79.36q7.68-3.072 17.408-3.072 15.36 0 15.36 14.848 0 5.632-3.072 17.408t-2.56 18.432v2.048h0.512q13.824 0 31.232-26.112 17.408-26.624 17.408-41.472 0-10.24-5.12-18.432t-9.728-12.8-16.896-9.216-16.896-5.632l-18.432-4.096q-2.56-0.512-4.096-1.024v-13.312q0-88.576-39.424-129.536l12.8-12.8q2.048-1.024 12.8-6.144t18.432-9.728 9.728-9.216q-33.28-26.112-67.584-26.112-17.408 0-38.4 8.704-45.056-18.944-92.16-18.944-60.416 0-119.808 31.232-18.432-4.096-28.16-9.728-3.584-2.048-13.824-9.216t-18.944-12.288-14.336-5.12q-1.536 9.216-1.536 18.944 0 40.448 27.136 64.512-30.72 50.688-31.744 131.584l-3.584 0.512h-1.536q-15.36 0.512-38.912-8.704-24.576-9.216-32.768-9.728-2.048 0-5.12 1.024zM118.784 118.528q0-6.656 3.584-13.824 13.824-49.152 45.568-70.656 22.016-14.848 54.272-24.064t59.904-9.216q33.792 0 74.752 14.336t61.44 36.864q34.816 37.376 34.816 131.584 0 115.712-47.104 194.048-6.144 10.24-9.216 14.336t-9.728 8.192-16.896 4.096q-25.6 0-54.784-31.232-38.912 24.064-71.68 24.064-30.208 0-53.76-22.016t-36.352-53.76-21.504-72.192-11.264-72.192-2.56-58.88zM211.456 326.912q0 11.264 8.192 19.456t18.944 8.192q11.264 0 19.456-8.192t8.192-19.456-8.192-18.944-19.456-7.68q-10.752 0-18.944 7.68t-8.192 18.944zM240.128 336.128q0-6.144 6.144-6.144 2.56 0 4.608 2.048t2.048 4.608-2.048 4.608-4.608 2.048q-6.144 0-6.144-6.656zM288.256 305.408l1.024 1.024-0.512-1.536zM290.816 307.968l26.624 26.624 26.112-26.624q-11.264-3.584-25.6-3.584-14.848 0-27.136 3.584zM291.84 296.704q13.824-2.56 25.6-2.56 11.264 0 25.088 2.56l-25.088-25.088zM345.6 304.896v1.536l0.512-1.024zM359.424 326.912q0 11.264 8.192 19.456t19.456 8.192 19.456-8.192 8.192-19.456-8.192-18.944-19.456-7.68-19.456 7.68-8.192 18.944zM388.096 336.128q0-2.56 2.048-4.608t4.096-2.048q2.56 0 4.608 2.048t2.048 4.608q0 6.656-6.656 6.656-2.56 0-4.608-2.048t-2.048-4.608z" horiz-adv-x="538"/>
<glyph unicode="Q" d="M0-22.784v489.984q61.952 10.752 152.064 10.752 71.68 0 120.832-12.288t84.992-39.424q84.48-64 84.48-189.44 0-133.12-82.432-202.24-75.776-64.512-230.912-64.512-73.216 0-128.512 7.168zM112.64 60.16q9.728-2.048 39.424-2.048h2.048q78.336 0 122.88 43.52 45.568 44.032 45.568 131.072 0 78.848-41.984 118.784t-117.248 39.936q-33.792 0-51.2-4.608v-326.656z" horiz-adv-x="442"/>
<glyph unicode="R" d="M0 36.608q0 28.16 19.968 48.128t48.128 19.968 48.128-19.968 19.968-48.128q0-28.672-19.968-48.64t-48.128-19.968-48.128 19.968-19.968 48.128zM0 208.128v97.792q91.648 0 169.472-45.568t123.392-123.392 45.568-169.472h-98.304q0 99.328-70.144 169.472-70.656 70.656-169.472 70.656zM0 381.696v98.304q103.936 0 198.656-40.96t163.328-109.568 109.568-163.328 40.96-198.656h-98.304q0 83.968-32.768 160.768t-88.576 132.096-132.096 88.064-160.768 32.768z"/>
<glyph unicode="S" d="M0 340.224q0 57.856 40.96 98.816t98.816 40.96q39.936 0 74.24-21.504 18.432 3.584 40.96 3.584 99.84 0 170.496-70.656t70.656-169.984q0-25.088-5.632-51.712 14.336-30.208 14.336-61.952 0-57.856-40.96-98.816t-98.816-40.96q-34.816 0-66.048 16.384-23.040-4.096-44.032-4.096-99.328 0-169.984 70.656t-70.656 170.496q0 24.064 4.608 48.128-18.944 33.28-18.944 70.656zM113.152 152.832q0-20.992 15.36-43.52 36.352-53.248 125.952-53.248 25.6 0 49.664 5.632t45.056 17.408 33.792 32.768 12.8 48.64q0 29.696-15.36 50.176t-37.888 29.696-49.152 16.896-49.152 11.776-37.888 13.312-15.36 23.040q0 16.896 18.944 25.088t38.4 8.192q20.48 0 33.792-6.656t19.456-15.36 10.752-17.92 12.8-15.36 20.48-6.656q13.824 0 24.576 9.728t10.752 23.552-7.68 27.648q-15.36 28.16-48.64 40.96t-70.656 12.8q-23.552 0-45.568-4.608t-42.496-14.848-33.28-29.184-12.8-44.544q0-33.792 20.48-54.784t49.664-29.184 58.88-14.848 50.176-17.408 20.48-30.208q0-14.848-11.776-25.088t-26.112-13.824-29.184-3.584q-19.456 0-33.28 5.632t-19.968 13.824-11.776 17.92-9.216 17.92-11.776 13.824-18.944 5.632q-14.336 0-25.088-8.704t-10.752-23.040z" horiz-adv-x="505"/>
<glyph unicode="T" d="M0 25.856q15.36-1.536 30.72-1.536 90.112 0 160.768 55.296-41.984 0.512-75.264 25.6t-45.568 64q10.24-2.048 24.064-2.048 17.92 0 34.304 4.608-45.056 8.704-74.752 44.544t-29.696 82.432v1.536q27.136-15.36 58.88-15.872-26.624 17.408-42.496 46.080t-15.872 61.952q0 34.816 17.92 65.024 48.128-59.904 117.76-95.744t148.992-39.936q-3.584 16.896-3.584 29.696 0 53.248 37.888 91.136t91.648 37.888q55.808 0 94.208-40.96 44.544 9.216 81.92 31.744-14.336-46.592-56.32-71.68 37.376 4.608 73.728 20.48-24.576-38.4-64-67.072v-16.896q0-51.712-15.36-103.936t-46.080-99.328-74.24-84.48-103.424-58.88-129.536-22.016q-107.008 0-198.144 57.856z" horiz-adv-x="630"/>
<glyph unicode="U" d="M0 107.776q0 27.648 3.072 82.944 2.048 27.136 19.456 44.544t44.544 18.944q51.2 2.56 154.112 2.56t154.112-2.56q27.136-1.536 44.544-18.944t19.456-44.544q2.56-46.080 2.56-82.944t-2.56-82.944q-2.048-27.136-19.456-44.544t-44.544-18.944q-51.2-2.56-154.112-2.56t-154.112 2.56q-27.136 1.536-44.544 18.944t-19.456 44.544q-3.072 55.296-3.072 82.944zM34.304 179.968h31.232v-166.912h30.208v166.912h31.232v28.16h-92.672v-28.16zM67.584 488.704h30.72l19.456-77.824h2.048l18.432 77.824h30.72l-23.552-75.776q-11.776-37.376-11.776-38.4v-80.896h-30.208v77.312q-1.024 7.168-3.072 13.312t-4.608 13.824-4.608 12.8zM126.976 35.584q0-24.576 18.432-24.576 16.384 0 31.232 17.92v-15.872h26.624v143.872h-26.624v-109.568q-10.752-10.752-15.872-10.752-7.168 0-7.168 9.728v110.592h-26.624v-121.344zM167.424 329.984v74.752q0 17.408 11.264 27.136t28.672 9.728q16.896 0 27.648-10.24t10.752-27.136v-74.24q0-18.432-10.24-29.184t-28.672-10.752q-17.92 0-28.672 11.264t-10.752 29.184zM195.072 326.4q0-11.776 11.264-11.776 11.776 0 11.776 12.8v78.336q0 4.608-3.584 7.68t-8.192 3.072-8.192-3.072-3.584-7.68v-79.872zM229.376 13.056h27.136v10.752q10.24-12.8 25.6-12.8 24.064 0 24.064 31.744v79.872q0 36.352-26.112 36.352-12.8 0-23.552-13.824v62.976h-27.136v-195.072zM256.512 40.192v90.112q5.632 5.632 11.264 5.632 11.264 0 11.264-14.336v-75.776q0-12.288-9.728-12.288-7.168 0-12.8 6.656zM268.288 316.16v121.344h26.624v-110.080q0-9.728 7.168-9.728 6.656 0 15.872 10.752v109.056h26.624v-143.872h-26.624v15.872q-14.848-17.92-31.232-17.92-18.432 0-18.432 24.576zM326.656 53.504q0-19.456 9.728-32.256t29.184-12.8q39.936 0 39.936 44.544v10.752h-27.648q0-1.024 0.512-7.168t-0.512-8.704-1.536-7.168-3.584-6.144-7.168-2.048q-11.776 0-11.776 20.48v27.136h51.2v36.864q0 19.456-9.728 30.72t-29.184 11.264q-18.432 0-29.696-11.776t-11.264-30.208v-65.024zM354.304 104.192v15.36q0 15.872 11.776 15.872t11.776-15.872v-15.36h-23.552z" horiz-adv-x="442"/>
<glyph unicode="V" d="M0 340.736q28.16 33.28 56.32 59.392t49.152 39.936 37.376 22.016 24.576 11.264l8.704 2.048q6.144 1.024 12.288 1.024 9.728 0 17.92-3.072 13.312-5.12 22.016-17.92t14.848-28.16 11.264-36.864 7.68-39.936 7.168-40.96 7.68-36.352q16.384-64 26.624-91.136t21.504-27.136q12.288 0 34.304 28.672t48.128 77.824q13.312 24.576 13.312 46.592 0 6.656-1.024 11.776-4.608 26.624-26.112 33.28-5.632 2.048-12.288 2.048-17.92 0-42.496-13.312 11.264 66.56 68.608 107.008 43.52 30.72 89.088 30.72 6.144 0 12.288-0.512 52.224-4.096 71.168-46.080 9.216-19.456 9.216-45.056 0-14.848-3.072-31.232-9.216-52.224-35.84-106.496t-57.856-96.256-68.096-79.36-63.488-59.904-46.592-35.328q-21.504-12.288-40.448-12.288t-35.84 10.752-28.672 24.576-19.456 29.184q-9.216 19.456-50.176 153.088t-49.664 143.872q-0.512 1.024-2.048 2.048t-7.168 2.56-12.288 0-18.944-7.168-25.6-16.896z" horiz-adv-x="587"/>
<glyph unicode="W" d="M0 22.784l53.76 189.952q17.92 10.24 44.032 15.872t43.008 6.656l17.408 0.512q25.6 0 53.248-5.12 51.712-10.24 73.728-31.232l-53.248-189.44q-18.432 14.336-40.96 23.552t-35.328 10.752l-13.312 2.048q-17.408 1.536-33.28 1.536-8.192 0-22.016-1.024t-43.008-7.168-44.544-16.896zM64.512 267.008l53.76 189.952q17.92 10.24 44.032 16.384t43.008 6.656l16.896 0.512q26.112 0 53.248-5.12 51.712-10.24 73.728-31.232l-53.248-189.952q-18.432 14.336-40.96 23.552t-35.328 10.752l-13.312 2.048q-17.92 1.536-32.768 1.536-8.192 0-22.016-1.024t-43.008-6.656-45.056-16.896zM285.184 4.352l53.248 189.952q18.944-14.336 41.472-23.552t35.328-10.752l12.8-2.048q17.408-1.536 33.28-1.536 8.192 0 22.016 1.024t43.008 6.656 44.544 16.896l-53.248-189.952q-17.92-10.24-44.032-15.872t-43.008-6.144l-16.896-1.024q-26.112 0-53.248 5.12-51.712 10.24-74.24 31.232zM346.624 247.552l53.248 189.44q18.944-14.336 41.472-23.552t35.328-10.752l12.8-2.048q17.408-1.536 33.28-1.536 8.192 0 22.016 1.024t43.008 6.656 44.544 16.896l-53.248-189.44q-17.92-10.24-44.032-16.384t-43.52-6.656l-16.896-1.024q-26.624 0-52.736 5.632-51.712 9.728-74.24 31.232z" horiz-adv-x="632"/>
<glyph unicode="X" d="M0 122.624h112.128l88.576 146.432-66.56 117.248h-112.128l66.56-117.248zM185.344 168.704l177.152 311.296h118.784l-176.64-311.296 113.664-200.704h-118.784z" horiz-adv-x="482"/>
<glyph unicode="Y" d="M0 372.992l3.072-9.728q2.048-3.072 4.096-5.12t3.072-2.56l1.024-1.024 9.728-5.12h56.832l146.944-176.128q5.632-6.144 5.632-12.8v-98.304q0-4.096-1.536-6.144t-3.072-2.56h-1.536q-57.344 0-72.704-1.536-5.12 0-5.12-4.608v-28.16h264.192v29.184q0 1.536-1.536 2.56t-2.56 1.024h-74.752q-4.608 0-4.608 7.68v103.424q-0.512 1.536 1.024 3.584t3.072 3.584l1.536 1.536q5.632 5.632 135.168 127.488h68.096q4.608 0 9.216 3.584l8.704 9.728q3.072 3.584 3.072 9.216v7.168q-0.512 1.536-1.536 2.56t-1.536 1.024h-224.256l-3.584-3.072q-0.512-3.072 1.024-6.656t3.072-5.12l1.024-2.048 11.776-11.776 9.216-3.584h58.88l-105.984-99.84-116.736 148.992h20.992q6.656-0.512 11.264 2.048l34.816 10.752q0.512 0 1.536 0.512t2.56 2.56 1.536 4.608v7.168q0 1.536-1.024 2.56t-2.048 1.024h-251.904q-4.096-0.512-5.12-3.584v-4.096zM609.28 428.8l94.72-3.584-42.496-290.304-31.232 1.536zM615.936 38.144l2.048 56.32 56.32-2.048-2.048-56.32z" horiz-adv-x="704"/>
<glyph unicode="[" d="M0 212.224q0 38.4 11.776 79.872t31.744 74.24q31.744 53.248 93.696 83.968t127.488 30.72q66.56 0 128-41.984t93.696-103.424q25.6-44.032 25.6-109.568 0-76.8-36.352-136.192t-98.304-90.624-138.24-30.72q10.24 18.432 31.232 56.32t37.888 67.072 33.28 55.296l0.512 1.024q1.536 2.56 6.144 9.728t6.656 10.24 5.12 8.704 5.12 10.752 3.072 10.752q3.072 12.288 3.072 24.576 0 40.96-24.576 72.704l140.8 41.472q-145.92 0-219.136-0.512-3.584 0.512-11.264 0.512-50.688 0-84.992-37.888t-28.672-88.576q-1.024 4.608-1.024 14.336 0 22.528 7.68 39.424l-104.448 102.912 101.376-174.592q9.728-36.864 40.96-60.416t69.12-23.552q8.704 0 16.896 1.536l-33.792-141.312q-58.88 0-114.176 36.352t-89.6 90.112q-33.792 52.224-33.792 117.76zM159.744 221.952q0-39.424 28.16-67.584t67.072-28.16 67.072 28.16 28.16 67.584q0 38.912-27.648 67.072t-67.072 28.16-67.072-28.16-27.648-67.072z" horiz-adv-x="511"/>
<glyph unicode="]" d="M0 76.544v294.912q0 0.512 1.536 9.728l173.568-148.48-173.056-166.4q-2.048 7.168-2.048 10.24zM23.040 401.664q3.584 1.536 8.704 1.536h467.456q4.608 0 9.216-1.536l-174.080-148.992-23.040-18.432-45.568-37.376-45.568 37.376-23.040 18.432zM23.552 46.336l174.592 167.424 67.584-54.784 67.584 54.784 174.592-167.424q-4.096-1.536-8.704-1.536h-467.456q-4.096 0-8.192 1.536zM356.352 232.704l173.056 148.48q1.536-4.608 1.536-9.728v-294.912q0-4.608-1.536-10.24z" horiz-adv-x="531"/>
<glyph unicode="^" d="M0 166.144v77.312q0 5.12 3.584 9.216t9.216 4.096h135.68l-58.88-102.912h-76.8q-5.632 0-9.216 3.584t-3.584 9.216zM62.464 41.216l33.792-19.456zM67.584 63.744q-1.536 5.632 1.024 10.24l155.648 270.336q2.56 4.608 7.68 6.144t9.728-1.536l33.28-18.944q5.12-2.56 6.656-8.192t-1.536-10.24l-155.136-270.336q-2.56-4.608-8.192-6.144t-10.24 1.536l-33.28 19.456q-4.608 2.048-6.144 7.68zM225.28 153.856l58.88 102.912h34.304l48.128-102.912h-141.312zM265.216 473.856q0.512 4.608 3.072 6.144 5.12 2.56 18.432-15.872t36.864-59.392 31.744-53.76q14.336-22.528 38.912-67.072t46.592-86.528 22.528-43.008q5.632-9.728-1.024-18.432t-15.872-12.288q-9.216-4.096-12.288-4.608t-15.36 3.584q-15.36 7.68-97.28 201.216-2.56 5.632-7.168 15.872t-8.704 19.456-9.728 21.504-9.728 22.528-8.704 21.504-7.168 19.968-4.096 16.896-1.024 12.288zM433.152 256.768h120.32q5.12 0 9.216-4.096t4.096-9.216v-77.312q0-5.12-4.096-9.216t-9.216-4.096h-68.096q-2.048 8.192-4.096 11.776l-12.288 23.552q-32.768 61.952-35.84 67.584zM439.808 94.464q1.536 5.632 6.656 8.192l18.944 9.728q5.12 2.56 10.752 1.024t8.192-7.168l15.872-30.72q6.144-12.288-5.12-19.968l-13.824-8.192q-5.12-2.56-10.752-1.536t-8.704 6.656l-20.48 31.744q-3.072 5.12-1.536 10.752zM479.232 20.224q0.512 8.192 2.048 10.752t6.656 7.168l12.288 4.608q31.232 6.144 36.864-35.84 1.536-16.384-0.512-38.912-2.048 6.144-22.528 15.36t-28.16 19.968q-6.656 9.216-6.656 17.408z" horiz-adv-x="567"/>
<glyph unicode="_" d="M0 134.4v179.2h71.68v-105.984h412.16v105.984h72.192v-179.2h-556.032z" horiz-adv-x="556"/>
<glyph unicode="`" d="M0 214.272q0 72.192 34.304 133.632t93.184 96.768 128.512 35.84 128.512-35.84 93.184-96.768 34.304-133.632q0-2.048-0.512-5.12t-0.512-5.12q-4.096 106.496-78.336 180.736t-177.664 74.24-177.664-74.24-78.336-180.736q0 2.048-0.512 5.12t-0.512 5.12zM93.696 214.784q0 69.632 47.616 119.296t114.688 49.664 114.688-49.664 47.616-119.296q0-1.536-0.512-5.12t-0.512-5.12q-4.096 66.048-50.688 112.128t-111.104 46.080-111.104-46.080-50.688-112.128q0 1.536-0.512 5.12t-0.512 5.12zM178.688 114.944q0 16.896 2.56 30.208t5.632 22.016 9.728 14.848 11.776 9.216 14.848 5.12 15.872 2.048 17.92 0.512 17.92-0.512 15.872-2.048 14.848-5.12 11.776-9.216 9.728-14.848 5.632-22.016 2.56-30.208q0-60.416-23.040-103.936t-54.784-43.52-54.784 43.52-23.040 103.936zM202.752 258.304q0 22.528 15.872 38.912t37.888 16.384 37.888-16.384 15.872-38.912-15.872-38.912-37.888-16.384-37.888 16.384-15.872 38.912z"/>
<glyph unicode="a" d="M1.024 82.688q2.56 4.096 8.192 0.512 128-74.24 278.528-74.24 100.352 0 198.144 37.376 2.56 1.024 7.68 3.072t7.168 3.072q7.68 3.072 12.288-3.072t-3.072-11.264q-9.216-6.656-23.552-15.36-44.032-26.112-98.304-40.448t-105.984-14.336q-79.872 0-151.040 28.16t-127.488 78.848q-3.072 2.56-3.072 5.12 0 1.536 1.024 3.072zM155.136 228.608q0 35.328 17.408 60.416t47.616 37.888q27.648 11.776 68.096 16.896 13.824 1.536 45.056 4.096v8.704q0 32.768-7.168 44.032-10.752 15.36-33.792 15.36h-4.096q-16.896-1.536-29.184-10.752t-15.872-25.6q-2.048-10.24-10.24-11.776l-58.88 7.168q-8.704 2.048-8.704 9.216 0 1.536 0.512 3.584 8.704 45.568 43.008 67.584t79.872 24.576h12.8q58.368 0 91.136-30.208 5.12-5.12 9.728-11.264t7.168-10.752 4.608-13.312 3.072-12.288 1.536-14.336 0.512-13.312v-123.904q0-13.312 4.096-24.576t7.68-15.872 11.776-15.872q3.072-4.608 3.072-8.192 0-4.096-4.096-7.168-42.496-36.864-46.080-39.936-6.144-4.608-14.848-1.024-7.168 6.144-12.8 11.776t-7.68 8.192-7.68 10.24-7.168 10.24q-28.672-31.232-56.32-38.912-17.408-5.12-43.008-5.12-39.424 0-65.024 24.576t-25.6 69.12zM243.2 238.848q0-19.968 10.24-32.256t27.136-12.288q1.536 0 4.608 0.512t4.096 0.512q21.504 5.632 33.28 27.648 5.632 9.728 8.704 21.504t3.072 18.944 0.512 23.552v12.8q-29.696 0-45.056-4.096-45.056-12.8-45.056-56.832zM458.24 73.984q1.024 2.048 3.072 4.096 12.8 8.704 24.576 11.776 19.456 5.12 37.888 5.632 5.12 0.512 9.728-0.512 23.040-2.048 27.648-7.68 2.048-3.072 2.048-9.216v-3.584q0-17.92-9.728-42.496t-27.136-39.424q-2.56-2.048-4.608-2.048-1.024 0-2.048 0.512-3.072 1.536-1.536 5.632 18.944 44.544 18.944 61.952 0 5.632-2.048 8.192-5.12 6.144-28.672 6.144-8.704 0-20.48-1.024-12.8-1.536-23.552-3.072-3.072 0-4.096 1.024t-0.512 2.048q0 0.512 0.512 1.536z" horiz-adv-x="563"/>
<glyph unicode="b" d="M0 285.44q0 28.16 19.968 48.128t48.128 19.968q24.064 0 43.008-15.36t24.064-38.4l257.024-103.424q16.384 9.728 34.816 9.728 1.024 0 3.584-0.512t4.096-0.512l56.32 81.408q0.512 37.376 27.136 64t64 26.624q37.888 0 64.512-26.624t26.624-64.512-26.624-64.512-64.512-26.624l-87.040-63.488q-2.56-26.112-22.016-44.032t-45.568-17.92q-24.576 0-43.008 15.36t-23.552 38.4l-257.024 102.912q-16.384-9.728-34.816-9.728-28.16 0-48.128 19.968t-19.968 48.128zM17.92 285.44q0-20.48 14.848-35.328t35.328-14.848q4.608 0 10.752 1.024l-20.992 8.192v0.512q-14.336 6.656-20.48 21.504-3.072 7.168-3.072 14.336 0 7.68 3.072 15.36 6.144 15.36 20.48 21.504 7.68 3.584 15.872 3.072 6.656 0 13.824-2.56v0.512l25.088-10.24q-14.848 26.624-44.544 26.624-20.48 0-35.328-14.848t-14.848-35.84zM381.44 114.944q14.848-26.624 44.544-26.624 20.48 0 35.328 14.848t14.848 35.84q0 20.48-14.848 35.328t-35.84 14.848q-7.168 0-10.752-1.024l20.48-8.192q15.36-6.144 22.016-21.504 3.584-7.68 3.584-15.36 0-7.168-3.072-14.848-6.144-15.872-21.504-22.016-7.68-3.072-15.36-3.072-7.168 0-14.848 3.072-4.096 1.536-12.8 5.12t-12.8 5.12zM519.68 286.464q0-25.088 17.92-43.008t43.008-17.92q25.6 0 43.52 17.92t17.92 43.008-17.92 43.008-43.52 17.92q-25.088 0-43.008-17.92t-17.92-43.008zM532.48 286.976q0-20.48 14.336-34.816t34.816-14.336q19.968 0 34.304 14.336t14.336 34.816q0 19.968-14.336 34.304t-34.304 14.336q-20.48 0-34.816-14.336t-14.336-34.304z" horiz-adv-x="672"/>
<glyph unicode="c" d="M0 148.224q0 53.248 37.888 91.136t90.624 37.888l0.512-0.512q0 1.536-0.512 3.584t-0.512 3.072q0 60.416 42.496 102.912t102.4 42.496q52.736 0 92.672-33.792t49.152-84.992h8.704q59.904 0 102.4-42.496t42.496-102.912-42.496-102.912-102.4-42.496q-4.096 0-6.144 0.512v-0.512h-295.936v0.512q-50.688 2.56-86.016 39.936t-35.328 88.576z" horiz-adv-x="568"/>
<glyph unicode="d" d="M0 204.032l109.568 83.456-109.568 82.944 159.232 103.936 103.936-89.088 106.496 89.088 154.624-98.816-101.376-84.48 101.376-87.040-157.184-94.72-103.936 79.872-103.936-79.872zM109.056 75.52v29.184l48.128-28.16 103.936 79.36 0.512-0.512v-181.76zM111.616 288.512l150.528-94.72 151.552 100.352-150.528 86.528zM261.632-26.368l0.512 181.76 1.024 0.512 103.424-79.36 51.2 30.72v-32.256z" horiz-adv-x="525"/>
<glyph unicode="e" d="M0 190.72q0 15.872 2.56 27.648t11.264 24.064 24.064 19.968 43.008 12.288 66.048 5.12q45.056 0 75.776-6.656 19.968-4.096 29.696-9.216v-82.432h-150.016q0-10.752 1.024-17.408t4.608-15.872 13.824-13.824 25.6-4.608q43.52 0 43.52 31.232h61.952v-45.568q-13.824-6.656-28.672-9.728-34.816-7.68-76.8-7.68-47.104 0-77.312 6.656t-44.544 19.968-19.456 28.672-5.12 38.4zM101.376 208.128h91.136q0 9.216-1.024 13.824t-4.608 12.288-14.336 11.264-27.648 3.584q-15.872 0-26.112-4.096t-13.824-11.776-4.608-12.288-1.024-12.8zM251.392 114.944v45.568h39.936q-0.512-26.112-37.888-44.544-1.024-1.024-2.048-1.024zM251.392 114.944q1.024 0 2.048 1.024 37.376 18.432 37.888 44.544h-39.936v19.968h41.472q0.512 6.144 0.512 11.776 0 23.040-6.656 38.912-8.192 19.968-35.328 31.744v93.696h54.784v-103.936h1.024q15.872 22.528 45.056 22.528 22.016 0 35.328-13.312-20.48-14.848-20.48-52.224 0-53.248 38.912-62.464-0.512-15.872-3.072-27.648t-8.192-24.064-16.896-18.944-27.648-6.656q-32.768 0-46.592 25.6h-0.512v-21.504h-52.736v40.448zM251.392 180.48v82.432q27.136-11.776 35.328-31.744 6.656-15.872 6.656-38.912 0-5.632-0.512-11.776h-41.472zM306.176 174.848q0-39.424 4.608-55.296t18.432-15.872q14.336 0 18.944 15.872t4.608 55.296v2.56q0 17.92-0.512 26.624t-2.56 18.944-7.168 14.848-13.824 4.096q-8.192 0-13.312-4.608t-6.656-15.36-2.56-19.456-0.512-27.648zM367.104 209.664q0 37.376 20.48 52.224 8.704-9.216 13.312-27.136t5.12-28.672 0-32.768v-26.624q-38.912 9.216-38.912 62.464zM371.2 291.072q0 35.328 20.48 48.128 17.408 13.312 51.712 13.312 2.048 0 25.088-1.536l54.784-111.616v-52.224q0-7.168 1.024-19.968t1.024-17.408h-51.2l-2.56 26.624h-1.024q-16.896-29.696-51.2-29.696-9.216 0-13.312 0.512v26.624q0 22.016-0.512 32.768t-5.12 28.672-13.312 27.136q19.456 14.848 69.12 14.848h12.288v15.872q0 14.848-4.608 22.016t-18.432 7.168q-13.312 0-16.896-8.192t-3.584-23.040h-54.784zM420.864 212.224q0-31.744 20.992-31.744 6.656 0 11.776 2.56t8.192 7.168 5.12 9.216 2.56 12.288 1.024 12.288 0 12.288-0.512 10.24q-2.048 0-8.704-0.512t-8.704-0.512l-7.168-1.024t-7.168-1.536-5.632-2.56-5.12-4.096-3.584-5.632-2.56-8.192-0.512-10.24zM455.168 377.6h78.848l51.2-118.784 55.808 118.784h73.216l-96.768-183.808v-97.28h-72.192v97.28l-22.016 45.568v46.592q0 28.16-11.264 44.544t-44.032 20.992zM468.48 350.976q32.768-4.608 44.032-20.992t11.264-44.544v-46.592z" horiz-adv-x="714"/>
<glyph unicode="f" d="M0 205.056v97.792h78.848v49.152q0 53.248 34.816 90.624t83.968 37.376h78.336v-97.792h-78.336q-7.68 0-13.824-8.704t-6.144-20.992v-50.176h98.304v-97.792h-98.304v-237.056h-98.304v237.056h-78.848z" horiz-adv-x="276"/>
<glyph unicode="g" d="M0 46.336q0-32.256 31.744-55.296t76.8-23.040 77.312 23.040 32.256 55.296q0 32.768-32.256 55.808t-77.312 23.040q-0.512 0-1.536-0.512t-1.536-0.512q-12.288 11.264-12.288 24.576t12.288 27.648q36.352 2.048 61.44 28.16t25.088 61.952q0 14.336-3.584 25.6 14.336 2.56 22.528 7.168v58.88q-24.576-16.384-55.808-16.384h-3.584q-23.552 15.872-51.712 15.872-38.4 0-65.536-26.624t-27.136-64.512q0-24.064 12.288-44.544t32.768-32.768q-14.336-18.432-14.336-37.888 0-18.432 13.312-38.4-23.552-10.752-37.376-28.16t-13.824-38.4zM61.952 267.52q0 16.896 11.264 29.184t26.112 12.288q15.36 0 26.112-12.288t10.752-29.184-10.752-29.184-26.112-12.288q-14.848 0-26.112 12.288t-11.264 29.184zM63.488 46.336q0 13.824 13.312 23.552t32.256 9.728 32.256-9.728 13.312-23.552q0-13.312-13.312-23.040t-32.256-9.728-32.256 9.728-13.312 23.040zM232.96 438.528q0 17.408 12.288 29.696t29.696 12.288 29.696-12.288 12.288-29.696-12.288-29.696-29.696-12.288-29.696 12.288-12.288 29.696zM242.688 107.264v245.248h68.608v-245.248h-68.608zM335.36 300.288h28.16v-145.92q2.048-15.36 10.24-26.624t17.92-16.384 19.456-8.192 15.872-3.584h10.24q13.824 0 24.576 4.096 11.776 4.096 15.36 8.192l3.584 4.608 1.024 50.688q-21.504-6.656-33.28-6.656-2.56 0-4.608 0.512-11.776 1.536-13.824 8.192l-2.048 6.656q0 1.536-0.512 2.048v121.856h46.592v52.224h-46.592v47.616h-62.976v-47.616h-28.16v-52.224z" horiz-adv-x="481"/>
<glyph unicode="h" d="M0-29.952v507.904l256.512-253.952zM0-29.952l256.512 253.952 68.608-68.096-103.424-59.904-221.696-128v2.048zM0 477.952v2.048l325.12-187.904-68.608-68.096zM256.512 224l68.608 68.096 118.272-68.096-118.272-68.096z" horiz-adv-x="444"/>
<glyph unicode="i" d="M0 224q0 69.632 34.304 128.512t93.184 93.184 128.512 34.304 128.512-34.304 93.184-93.184 34.304-128.512-34.304-128.512-93.184-93.184-128.512-34.304-128.512 34.304-93.184 93.184-34.304 128.512zM51.2 224q0-84.992 59.904-144.896t144.896-59.904 144.896 59.904 59.904 144.896-59.904 144.896-144.896 59.904-144.896-59.904-59.904-144.896zM144.896 133.888q0-15.872 11.264-27.136t27.136-11.264q16.896 0 29.184 12.288t12.288 29.184v137.728l102.4 18.944v-106.496q-7.68 2.56-14.336 2.56-16.896 0-29.184-12.288t-12.288-29.184q0-15.872 10.752-27.136t26.624-11.264 28.672 11.776 13.312 27.648v201.728l-148.48-25.6v-153.6q-7.68 2.56-14.336 2.56-17.408 0-29.696-12.288t-12.288-29.184z"/>
<glyph unicode="j" d="M0-32v512h391.168v-418.304l-292.352 1.536v-95.232h-98.816zM97.792 151.808h204.288v230.4h-204.288v-230.4z" horiz-adv-x="391"/>
<glyph unicode="k" d="M0 189.696v68.608t1.536 30.208 3.584 31.744 7.168 27.136 12.288 28.672 18.432 24.064 26.112 24.576q74.752 56.32 182.272 56.32h8.192v-397.824h63.488v106.496q3.584-5.632 19.968-32.768t26.112-40.96q14.848-20.48 32.768-27.136t47.104-6.656h18.432v60.416q-23.040 0-32.256 3.584t-21.504 20.992q-7.168 9.216-18.944 29.184t-13.312 22.528l87.552 121.856h-75.776l-69.632-96.768v231.936q69.12-11.264 121.856-51.2 14.848-11.264 26.112-24.576t18.432-24.064 12.288-28.672 7.168-27.136 3.584-31.744 1.536-30.208v-68.608t-1.536-30.208-3.584-31.744-7.168-27.136-12.288-28.672-18.432-24.064-26.112-24.576q-74.752-56.32-187.904-56.32t-187.904 56.32q-14.848 11.264-26.112 24.576t-18.432 24.064-12.288 28.672-7.168 27.136-3.584 31.744-1.536 30.208zM41.472 113.408q33.792-34.304 98.304-34.304 40.96 0 70.656 20.992t29.696 60.416q0 26.112-9.216 43.52t-23.040 23.552-30.208 10.24-30.208 4.608-23.040 6.144-9.216 15.36q0 24.064 35.84 23.552 29.184 0 44.544-14.848l39.936 39.936q-30.72 30.72-87.040 30.72-39.936 0-67.584-21.504t-27.648-60.416q0-26.112 10.752-43.008t26.624-23.040 32.256-8.704 30.72-4.608 18.944-7.168q5.12-5.632 5.12-15.36 0-23.552-36.864-23.552-39.424 0-57.856 18.432z"/>
<glyph unicode="l" d="M0 224q0 83.968 59.392 143.36t143.36 59.392q63.488 0 112.64-32.768t75.264-92.672q7.68-18.432 66.048-153.6 10.752-24.576 19.456-37.888t25.088-23.040 40.96-11.264h3.584q34.304 0 56.832 18.432 23.552 19.456 24.064 49.152 0 13.824-4.096 23.040t-15.36 16.384-20.992 11.264-30.208 10.752q-64 20.992-92.16 46.080t-28.16 69.632q0 46.592 29.696 74.752t80.384 28.16q65.024 0 97.792-58.88l-43.008-22.016q-23.040 31.744-57.344 31.744-23.552 0-39.424-14.848t-15.872-37.376q0-6.656 1.024-12.8t4.608-10.752 6.144-8.192 9.216-7.68 10.24-6.144 12.8-5.632 13.824-5.12 16.384-5.12 16.896-5.12q55.296-18.432 79.36-43.008t24.064-71.68q0-51.2-38.912-84.992-38.4-33.28-95.232-33.28h-1.536q-51.2 0-82.432 24.064t-52.736 72.192l-7.168 16.896-65.024 147.456q-16.896 39.424-53.76 63.488t-81.408 24.064q-60.928 0-104.448-43.52t-43.52-104.448 43.52-104.448 104.448-43.52q41.984 0 76.8 22.016t53.76 57.856l26.112-60.416q-28.16-34.816-69.12-54.784t-87.552-19.968q-83.968 0-143.36 59.392t-59.392 143.36z" horiz-adv-x="681"/>
<glyph unicode="m" d="M0-4.864v459.264h94.72l4.608-4.096h422.4l4.608 4.096h89.088v-460.8h-87.552v3.584h-437.76v-2.048h-90.112zM90.112 62.72v-40.96h437.76v37.888l-176.64 132.608-40.448-33.28-44.032 35.84zM90.112 93.44l157.184 117.248-157.184 129.024v-246.272zM132.608 421.632l178.176-152.576 177.664 152.576h-355.84zM370.688 208.128l157.184-117.76v247.808z" horiz-adv-x="616"/>
<glyph unicode="n" d="M0 314.624l161.792 165.376v-62.976l154.112-141.824 95.744 23.552-99.84-106.496 200.192-224.256-227.328 200.704-96.256-98.304 15.36 86.528-130.56 161.792z"/>
<glyph unicode="o" d="M0 148.736q-0.512 32.256 12.8 59.904t34.304 45.568 47.104 32.256 51.712 22.016 47.616 13.312 34.816 6.656l13.312 1.536v-62.976q-29.184-2.048-53.76-10.24t-39.936-18.944-27.136-23.552-17.92-24.576-9.728-22.016-4.096-15.872l-1.024-6.144q-1.536-7.68-1.536-15.36 0-11.264 3.584-21.504 6.144-17.408 19.456-29.696t30.208-23.040 34.816-16.896 32.768-11.264 24.064-6.656l9.728-1.536v-52.736q-49.664 5.12-90.112 17.92t-65.024 29.184-42.496 34.816-26.112 36.352-12.8 31.744-5.12 23.040zM261.12-32v461.824l72.704 50.176v-472.064zM351.232 270.592h2.56q19.456-0.512 39.424-7.68 21.504-8.192 32.768-15.872l10.752-8.192-42.496-17.408 160.256-39.936v125.44l-54.784-31.232q-20.48 22.016-57.856 35.328t-64.512 15.872l-26.624 2.56v-58.88z" horiz-adv-x="555"/>
<glyph unicode="q" d="M0 249.088q0 62.464 30.72 115.712t82.944 84.48 114.176 31.232q94.208 0 161.28-67.584t67.072-163.328q0-60.928-29.184-113.152t-78.848-83.456q0.512-1.024 2.048-3.584t6.144-8.192 10.752-11.264 16.896-11.264 23.040-8.704v-38.912q-18.432-3.584-34.304-3.584-25.6 0-43.52 9.216-28.672 14.848-46.592 48.128-24.576-6.656-53.76-6.656-61.44 0-114.176 31.232t-82.944 83.968-30.72 115.712zM113.152 218.88q0-59.392 34.304-101.888t82.432-42.496q13.312 0 26.624 4.096-1.024 1.536-3.072 4.608t-7.68 9.728-12.288 12.288-15.872 10.24-18.944 5.12v45.056q5.12 0.512 10.24 0.512 60.928 0 103.936-46.080 32.256 41.472 32.256 99.328v59.392q0 59.392-34.304 101.888t-82.432 42.496-82.432-42.496-34.304-101.888v-59.392z" horiz-adv-x="455"/>
<glyph unicode="s" d="M0 157.952q0 8.192 2.048 22.528t5.12 15.872q3.072-1.536 5.632-16.896t2.56-22.016q0-7.168-2.56-22.016t-5.632-16.384q-6.656 3.584-6.656 37.888zM32.768 157.952q0 12.8 2.56 37.888t3.072 31.232q0 3.072 3.072 3.072 2.048 0 3.072-3.072 6.144-66.048 6.144-69.12 0-12.288-3.072-36.352t-3.584-30.208q-1.024-3.584-3.072-3.584-3.072 0-3.072 3.584-0.512 5.632-3.072 30.208t-2.56 36.864zM74.24 157.952q0 12.288 2.56 37.888t2.56 28.16q0 4.608 3.584 4.608 4.096 0 4.096-4.608 5.632-57.856 5.632-65.536t-5.632-69.632q0-4.096-4.096-4.096-3.584 0-3.584 4.096 0 3.584-2.56 30.208t-2.56 39.936zM121.344 157.952q0 19.456 1.024 41.472t2.048 48.64 2.048 41.984q0 5.12 4.608 5.12 5.12 0 5.12-5.12 0.512-8.192 3.072-57.344t2.56-74.752q0-13.312-2.56-39.424t-2.56-29.696q0-5.12-5.12-5.12-4.608 0-4.608 5.12-4.608 67.584-4.608 69.12zM169.472 157.952q0 28.16 1.536 81.92t2.048 66.048q1.024 6.144 6.144 6.144t6.144-6.144q0.512-16.384 2.56-68.096t2.048-79.36q0-12.8-2.048-36.864t-2.56-31.232q-1.024-6.144-6.144-6.144t-6.144 6.144q0 5.632-2.048 30.208t-2.048 37.888zM218.112 157.952q0 20.48 0.512 43.52t1.536 51.2 1.536 43.52q1.024 7.68 7.168 7.68t7.168-7.68q0.512-15.36 1.536-43.52t1.536-51.2 0.512-43.52q0-1.024-3.072-67.072v0.512q-1.024-7.68-7.168-7.68t-7.168 7.168q-3.072 66.048-3.072 67.072zM266.752 157.44q0 1.536 3.072 179.712 1.024 9.216 8.192 9.216t8.192-9.216q3.072-178.176 3.072-179.712 0-0.512-3.072-65.024-1.024-8.704-8.192-8.704t-8.192 8.704q-3.072 64.512-3.072 65.024zM307.712 266.496q0 42.496 0.512 79.872-0.512 5.12 6.656 9.216t16.896 6.144 17.92 3.072 12.8 1.024q49.664 0 86.528-37.376t40.96-91.648q14.336 6.656 28.16 6.656 29.696 0 51.2-23.552t21.504-56.832-21.504-56.832-51.2-23.552h-201.216q-3.072 0-5.632 3.072t-2.56 6.656q0 28.16-0.512 79.872t-0.512 93.696z" horiz-adv-x="590"/>
<glyph unicode="t" d="M0 270.080v72.704q30.72 10.24 51.712 28.16 20.992 16.896 34.304 44.032 13.312 26.112 17.92 65.024h73.216v-129.536h121.344v-80.384h-121.344v-131.072q0-44.032 4.608-57.344 4.608-12.288 17.408-19.968 17.408-10.24 38.912-10.24 39.424 0 77.312 25.088v-80.384q-32.256-15.872-59.392-22.016-26.624-6.144-57.344-6.144-34.816 0-62.464 8.704-28.16 9.728-45.568 25.6-18.432 15.872-26.624 34.816-7.168 17.408-7.168 53.76v179.2h-56.832z" horiz-adv-x="316"/>
<glyph unicode="v" d="M0 49.408v347.136q0 33.792 22.016 58.88t55.296 25.088h356.864q35.84 0 59.904-19.456t24.064-54.784v-30.208q-37.888 7.168-56.832 10.24-27.136 3.584-27.648 3.584-5.12 1.536-15.36 5.12t-17.408 5.632-16.896 2.048q-31.744 0-67.584-24.064-17.408-1.536-49.152-3.584t-57.344-4.608-49.152-7.168h-1.024l-0.512-0.512h-2.048l-0.512-0.512h-0.512q-36.864-7.168-44.544-13.312-9.216-7.68-10.24-36.352v-84.48l-1.536-9.216 269.312-6.656 40.96 13.824q-22.528-40.448-35.84-67.584l-54.272-24.064-207.872-3.584q-1.536-1.536-5.12-2.048t-5.632-2.56q2.048-13.312 3.584-19.968 6.144-26.624 57.344-30.208 105.472-6.656 171.52-6.656 19.456 0 61.44 10.24t65.024 10.24q33.28 0 56.832-14.848v-27.648q0-79.36-78.848-79.36h-370.176q-31.232 0-50.176 24.576t-18.944 56.832zM353.28 328.96q0 7.168 5.12 12.8t12.288 5.632 12.8-5.632 5.632-12.8-5.632-12.288-12.8-5.12-12.288 5.12-5.12 12.288z" horiz-adv-x="518"/>
<glyph unicode="w" d="M0 224q0 69.632 34.304 128.512t93.184 93.184 128.512 34.304 128.512-34.304 93.184-93.184 34.304-128.512-34.304-128.512-93.184-93.184-128.512-34.304-128.512 34.304-93.184 93.184-34.304 128.512zM19.968 224q0-69.12 36.864-126.464t96.768-86.016l-112.64 308.736q-20.48-45.568-20.48-96.256zM58.368 353.536h15.36q24.576 0 62.976 3.072 6.144 0.512 9.216-4.096t1.024-9.728-8.192-5.632l-27.136-2.56 86.016-255.488 51.712 154.624-36.864 100.864q-12.288 1.536-24.576 2.56-6.144 0.512-8.192 5.632t1.024 9.728 9.216 4.096l61.952-3.072q25.088 0 62.976 3.072 6.144 0.512 9.216-4.096t1.024-9.728-8.192-5.632l-26.624-2.56 84.992-253.952 23.552 78.848q18.432 59.904 18.432 76.288 0 32.768-19.968 65.536-1.024 1.536-6.656 10.752t-7.168 12.288-4.608 9.728-4.096 12.288-1.024 10.752q0 16.896 11.776 29.696t28.672 12.8q0.512 0 1.536-0.512t1.536-0.512q-67.072 61.952-159.744 61.952-60.928 0-113.152-28.672t-84.48-77.824zM189.44-2.816q31.744-9.216 66.56-9.216 40.96 0 78.336 13.312l-1.536 3.072-72.704 199.168zM374.784 19.712q53.76 31.232 85.504 86.016t31.744 118.784q0 61.44-28.672 113.152 1.536-10.752 1.536-24.064 0-32.256-17.92-84.48z"/>
<glyph unicode="y" d="M0 178.944v-6.656q0-22.016 3.072-35.328 2.56-9.216 9.728-13.312t14.848-1.536l104.448 32.256q11.264 3.584 15.872 13.312 2.56 5.12 2.56 10.24t-2.56 9.728q-4.608 9.728-16.384 13.312l-104.448 41.984q-7.168 1.536-14.336-4.096t-8.704-15.872q-4.096-18.432-4.608-45.056zM44.544 423.168q-2.56 4.096-2.56 8.192 0 4.608 3.072 9.216 6.144 8.704 19.456 13.824 41.472 15.872 87.552 23.552h2.56q23.040 0 25.088-19.456 12.8-160.256 12.8-201.216 0-16.896-13.824-20.48-3.072-1.024-6.144-1.024-10.752 0-18.944 12.8-75.776 118.784-109.056 174.592zM79.872 31.488l71.168 84.992q9.728 10.752 19.456 10.752 4.096 0 8.192-1.536 12.8-5.632 12.8-23.040 0-2.56-0.512-5.12v-113.152q-1.024-7.168-8.704-11.264-4.608-2.56-9.216-2.56-4.096 0-8.192 1.536-18.432 3.072-43.52 13.312t-37.376 19.456q-9.216 7.168-9.216 15.36 0 5.632 5.12 11.776zM230.4 204.032q-3.072 6.144-3.072 11.776 0 8.704 7.68 16.896l66.56 91.648q3.584 4.096 10.24 4.096 1.536 0 3.584-0.512 8.704-1.024 14.848-9.216 12.8-13.312 27.136-36.352t18.944-37.888q1.536-4.096 1.536-7.68 0-4.608-2.048-8.192-4.096-6.656-11.776-8.192l-107.008-27.136q-4.096-1.024-8.192-1.024-11.776 0-18.432 11.264zM236.544 140.032q-4.608-6.144-4.608-12.288 0-8.192 6.656-16.384l58.368-97.28q3.584-4.608 12.288-4.608h1.536q9.728 0.512 16.896 7.68 13.824 12.288 28.672 32.256t21.504 35.84q2.048 5.632 2.048 10.752 0 3.584-1.536 6.656-2.56 7.168-9.728 9.728l-104.96 35.84q-5.12 2.048-9.728 2.048-10.752 0-16.896-9.728z" horiz-adv-x="380"/>
<glyph unicode="{" d="M0 305.408q89.088 16.896 106.496 36.352 13.824 15.36 23.040 46.592 9.216-11.776 11.776-25.088t0.512-20.48l-2.56-6.656q-3.072-6.656-5.632-10.752t-4.096-7.168-5.12-5.632-5.12-4.608-8.192-5.632-10.752-7.168q-17.92-13.824-17.408-32.256t15.872-28.16q13.312-8.192 26.112 3.072t27.136 39.936q6.144 12.8 9.728 33.792t10.24 37.376 24.064 30.208q10.24 8.192 23.552 9.728t25.6 0.512 26.624 0 30.72 12.288 34.304 33.28q2.56 3.072 7.168 8.192t19.456 14.848 30.208 14.336 37.888-0.512 44.032-23.040q-24.576 10.752-46.080 10.752t-34.816-7.68-22.528-16.896-13.312-16.896l-3.584-7.68q-7.68-18.944-14.848-31.744t-12.288-19.968-12.8-11.776-12.288-6.144-16.384-4.608-19.456-5.12q-22.016-6.656-25.6-27.648-3.072-18.432 11.264-27.136 16.384-9.216 41.984 7.168 18.944 12.288 30.72 25.6t15.872 22.528 14.336 20.48 26.624 18.944q22.016 10.752 41.984 14.848t42.496 4.096 34.304 2.048q100.864 16.384 125.952 58.368 24.576 40.448 25.088 66.56 8.704-29.696 6.144-53.248t-13.824-41.472-22.528-29.184-20.992-17.408l-9.216-5.632q-39.424-20.48-66.048-28.672t-43.008-10.752-31.744-11.264q-52.736-28.16-26.624-79.36 10.752-20.992 31.744-23.040t39.936 15.36q3.072 2.56 7.168 7.168t11.776 19.968 8.192 31.232q10.24-28.672 8.192-49.664t-10.752-32.768l-7.68-11.264q-18.432-19.456-31.232-27.648t-32.256-9.728-46.080 7.68q-44.032 10.752-61.44 10.752t-31.744-9.216q-14.336-8.192-22.016-22.016t-1.024-25.088q7.168-12.8 17.408-14.336t32.768 11.264q19.968 11.776 33.792 15.36t34.816 4.608q44.544 1.024 71.168-19.456 18.944-12.288 37.888-29.184-20.48 12.288-40.448 15.872t-33.792-0.512-25.088-9.216-16.384-11.264l-5.12-5.12q-23.040-26.112-38.912-36.864t-27.136-10.752-30.208 7.68q-5.12 2.048-20.48 8.704t-21.504 8.192v56.32q0 61.952-47.104 95.232-30.208 20.48-68.608 20.48-38.912 0-68.608-19.968-10.24 14.848-26.112 16.896v38.4q0 15.872-11.264 27.136t-27.136 11.264h-9.216zM65.024 16.64v82.944q0 33.28 9.728 50.688 20.48 36.352 68.608 36.352 35.328 0 56.832-22.528t21.504-56.32v-69.12h-103.424v-34.304q0-24.576 25.6-24.576 23.040 0 25.6 25.088h52.224q0-31.744-20.992-53.76-22.016-22.016-56.832-22.016-48.128 0-68.608 36.352-9.728 17.408-9.728 50.688zM117.76 78.592h51.2v28.672q0 28.672-25.6 28.672t-25.6-28.672v-28.672zM251.904-23.296q5.632 18.432 5.632 36.352 0 5.632-1.536 10.24 12.288-2.048 17.408-2.56 31.744-3.072 43.52-23.552 1.024-1.536 2.56-4.608t3.584-11.776-0.512-15.872q-15.872 12.288-33.792 15.36t-27.648-0.512z" horiz-adv-x="659"/>
<glyph unicode="|" d="M0.512 30.976q1.536 15.872 6.144 33.792 5.632 23.040 36.864 179.712t36.352 179.2q6.144 26.624 12.288 37.376t19.968 15.36 44.544 4.608h123.392q30.208 0 69.12-0.512t59.392-0.512q20.992 0 25.6-23.040 5.12-24.576-11.776-47.104-15.36-20.48-41.472-20.48h-205.312l-25.6-119.296 180.224-1.536q22.528 0 27.648-23.040t-10.752-43.008q-13.824-16.896-35.84-16.896h-184.32l-24.576-126.976h221.184q32.768 0 39.424-22.528t-8.704-45.056-34.816-22.528h-283.136q-15.36 0-24.576 8.704t-11.264 23.552-0.512 30.72z" horiz-adv-x="436"/>
<glyph unicode="}" d="M0 115.456q0 22.528 16.384 38.912t39.424 16.384q22.528 0 38.912-16.384t16.384-38.912q0-23.552-17.408-39.936 33.28-37.888 83.456-37.888 35.328 0 59.392 20.992 24.064 21.504 24.064 54.272 0 19.968-12.8 39.424-11.776 19.456-30.72 32.768-17.408 11.776-58.88 29.184-38.4 15.36-62.464 30.208-21.504 13.824-37.376 32.768-15.36 18.432-23.552 37.888-7.168 19.968-7.168 40.448 0 51.712 41.472 88.064 41.984 36.352 100.864 36.352 39.424 0 79.36-16.896 33.792-14.336 57.856-40.96 18.944-16.384 18.944-40.96 0-23.040-16.384-39.424t-38.912-16.384q-23.040 0-39.424 16.384t-16.384 39.424q0 10.752 5.12 22.528-16.384 8.192-45.056 8.192-35.328 0-57.344-15.872t-22.016-40.96q0-22.016 19.456-38.912 20.48-16.896 65.536-36.352 47.104-20.48 72.192-37.376 26.112-17.408 41.984-37.888 16.896-20.992 24.576-43.52 0-0.512 0.512-1.536t0.512-1.536q-38.4-31.744-38.4-80.896 0-27.136 14.336-53.248-5.632-6.656-12.288-13.824-44.544-41.984-105.472-41.984t-106.496 32.768-71.168 99.328l1.536 0.512q-2.56 7.68-2.56 14.848zM313.856 77.056q0-26.624 18.432-45.568t45.056-18.944 45.056 18.944 18.432 45.568q0 26.112-18.432 45.056t-45.056 18.944-45.056-18.944-18.432-45.056z" horiz-adv-x="441"/>
<glyph unicode="~" d="M0 472.32h51.2l4.096-61.952h5.12l2.56 1.536q40.448 68.096 125.952 68.096 66.56 0 109.056-50.688t42.496-130.048q0-47.616-13.824-85.504t-37.376-60.416-51.712-34.304-59.904-11.776q-35.328 0-64.512 14.848t-44.544 40.96l-1.024 1.536h-5.632l-1.536-3.584v-193.536h-57.856v389.632q0 45.056-3.072 114.688zM60.928 260.864q0-15.872 3.072-28.16 9.728-35.84 37.888-57.856t64.512-22.016q51.712 0 82.944 39.424t31.232 104.96q0 60.928-31.232 99.328t-80.384 38.4q-36.864 0-65.536-23.552t-37.888-60.416q-4.608-16.896-4.608-27.136v-62.976z" horiz-adv-x="340"/>
<glyph unicode="£" d="M0.512 306.944q-5.632 77.312 64.512 129.024 32.256 24.064 74.24 35.84 39.936 11.776 89.6 5.632t92.672-30.208q-1.024-20.48 0-38.912 3.072-60.928-5.12-78.336-4.608 0.512-26.624 7.168-18.432 5.632-33.792 8.192-15.872 3.072-31.232 4.096-35.84 3.072-50.688-19.456 4.096-22.528 19.456-33.792 15.36-10.752 41.984-18.944 25.088-7.168 35.328-13.312 57.856-35.84 71.168-112.128v-43.52q0-41.472-23.040-73.216t-60.928-47.616q-53.76-22.528-125.44-19.968t-122.88 30.72q1.536 20.992 0 40.448-1.536 21.504-1.024 41.472 1.024 22.016 6.144 35.328 9.216-1.536 24.576-5.632 27.136-7.68 37.888-9.728 84.48-18.432 90.624 20.48 1.536 11.264-5.632 20.992t-17.92 15.36q-14.336 7.168-24.576 11.264-14.848 6.144-18.944 8.704-22.528 11.776-30.208 16.384-29.184 17.408-40.96 34.816-27.648 39.424-30.72 78.848z" horiz-adv-x="342"/>
<glyph unicode="Ç" d="M0 241.408v26.112q0 19.456 44.544 33.28t108.032 13.824 108.032-13.824 44.544-33.28v-26.112q-0.512-19.456-45.056-33.28t-107.52-13.824-107.52 13.824-45.056 33.28zM146.944 365.824v13.824q1.024 9.728 32.768 16.896t76.288 7.168 76.288-7.168 32.768-16.896h0.512v-13.824h-0.512q-1.024-10.24-32.768-17.408t-76.288-7.168-76.288 7.168-32.768 17.408zM254.976 112.896v32.768q2.048 28.672 59.904 48.64t138.752 19.968 138.752-19.968 59.904-48.64v-32.768q-1.536-28.16-59.392-48.128t-138.752-19.968-138.752 19.968-59.904 48.64zM371.712 287.488v21.504q1.024 14.848 38.912 25.088t90.112 10.24 90.112-10.24 38.912-25.088v-21.504q0-14.848-37.888-25.6t-91.136-10.752-91.136 10.752-37.888 25.6z" horiz-adv-x="652"/>
<glyph unicode="É" d="M0 405.248q0 10.24 6.656 16.896t16.896 6.656h120.32q8.192 0 14.848-5.12t8.704-13.312l12.288-50.176h345.088l3.584 10.752q5.12 16.384 22.016 16.384 4.608 0 6.656-1.024 7.68-2.048 12.288-8.192t4.608-13.824q0-2.56-1.024-6.656l-60.416-201.216q-2.048-7.68-8.192-12.288t-13.824-4.608h-286.208q-8.192 0-14.848 5.12t-8.704 12.8l-55.296 224.256h-101.888q-9.728 0-16.896 6.656t-7.168 16.384zM190.464 314.112l31.744-126.976h250.368l1.024 4.608 36.864 122.368h-320zM211.968 66.304q0 19.456 14.336 33.28t33.792 13.824 33.28-13.824 13.824-33.28-13.824-33.28-33.28-13.824-33.792 13.824-14.336 33.28zM245.248 274.176h84.992v-47.104h-74.752zM370.688 227.072l0.512 47.104h82.944l-12.288-47.104h-71.168zM389.632 66.304q0 19.456 14.336 33.28t33.792 13.824 33.28-13.824 13.824-33.28-13.824-33.28-33.28-13.824-33.792 13.824-14.336 33.28z" horiz-adv-x="574"/>
<glyph unicode="Ñ" d="M0 19.2v170.496l59.392 66.048h43.52v-32.768h-28.672l-40.96-45.568v-125.44h407.040v125.44l-40.96 45.568h-28.672v32.768h43.52l58.88-66.048v-170.496h-473.088zM102.912 182.528v168.96l77.312 77.312h190.464v-246.272h-267.776zM133.632 213.76h206.336v184.32h-129.024v-77.312h-77.312v-107.008z" horiz-adv-x="473"/>
<glyph unicode="Ö" d="M0 114.432q0 32.256 14.336 50.176 11.776 15.872 37.888 23.040-8.192 20.48-8.192 30.208 0 16.896 17.92 35.84 18.944 17.92 35.328 17.92 8.704 0 20.48-4.608-24.576 70.144-35.328 106.496-12.288 41.472-12.288 58.88 0 24.576 12.288 38.4 12.8 14.336 34.304 14.336 36.864 0 88.576-151.040l8.704-25.088q3.072 7.68 6.144 16.896 51.2 149.504 92.16 149.504 20.48 0 32.256-13.824 12.288-13.824 12.288-35.84 0-14.336-12.288-57.856-10.752-37.376-33.792-102.4 29.184-7.168 41.984-27.648 13.824-22.016 13.824-68.096 0-91.136-54.272-148.992-55.296-57.856-140.288-57.856-33.792 0-65.024 12.288-30.208 10.752-54.784 33.792-26.112 24.576-38.912 50.688-13.312 27.648-13.312 54.784zM33.28 116.992q0-12.8 7.168-30.208 6.656-16.384 19.968-34.304 20.992-27.136 49.664-41.472 29.184-14.336 66.048-14.336 66.048 0 111.104 49.664 44.544 49.152 44.544 124.416 0 23.552-3.072 36.352-2.56 11.264-9.728 17.408-13.824 11.776-54.272 20.48-40.448 9.216-86.016 9.216-11.264 0-14.336-3.072-3.584-1.536-3.584-10.24 0-20.992 23.552-29.696 25.6-10.752 84.48-10.752h14.336q8.192 0 11.776-5.632 4.096-4.096 5.632-15.872-8.704-8.704-28.16-15.872-18.432-6.656-27.136-13.312-20.48-14.848-32.768-35.328-11.776-19.968-11.776-37.888 0-10.752 5.12-26.112 5.632-16.896 5.632-22.016v-3.072l-2.048-7.68q-22.528 1.536-32.768 20.992-8.704 16.384-9.728 41.984-1.536-0.512-6.144-0.512h-5.632q0.512-2.56 0.512-6.144 0-15.36-11.776-26.112t-27.648-10.752q-24.064 0-48.64 23.040-24.576 23.552-24.576 46.080 0 4.096 1.536 8.192 0.512 3.584 8.192 11.264 12.8-15.872 17.408-22.016 21.504-30.208 38.912-30.208 4.608 0 8.704 3.072 3.072 3.072 3.072 5.12 0 4.096-6.144 14.848-4.096 7.68-18.944 27.136-14.336 18.432-23.040 25.6-7.68 7.168-11.264 7.168-9.728 0-18.944-11.264t-9.216-28.16zM79.36 214.784q0-6.656 8.192-23.040 7.168-13.824 23.040-34.816 15.872-20.48 28.672-31.744 12.288-10.24 18.432-10.24 3.584 0 7.168 3.584 3.584 4.096 3.584 8.192 0 6.144-9.216 29.696-10.752 26.112-23.552 47.104-11.264 17.92-19.968 25.088-8.192 7.68-15.872 7.68-5.632 0-12.8-7.68-7.68-7.68-7.68-13.824zM102.4 435.968q0-17.408 12.288-54.784 11.264-36.352 33.792-97.28 5.12 3.072 14.336 3.072 0.512 0 3.584-0.512t5.632-0.512q2.048 0 13.312-1.024l-35.328 102.4q-14.336 40.96-22.528 53.248-6.656 10.752-13.312 10.752-4.608 0-7.68-4.096-3.584-4.608-3.584-11.776zM187.392 174.848q4.608-11.776 9.728-25.6 10.24 11.776 20.48 19.456-2.56 0.512-7.68 1.536t-7.68 1.536q-10.24 2.048-14.848 3.584zM241.152 279.296l34.304-6.144q23.040 63.488 35.328 101.888 12.8 41.472 12.8 49.152 0 8.192-3.584 12.8-2.048 3.584-7.68 3.584-7.168 0-15.872-13.824-9.728-14.848-22.016-51.712z" horiz-adv-x="367"/>
<glyph unicode="Ü" d="M0 19.2v409.6q0 20.992 15.36 36.352t36.352 15.36h409.6q20.992 0 36.352-15.36t15.36-36.352v-409.6q0-20.992-15.36-36.352t-36.352-15.36h-409.6q-20.992 0-36.352 15.36t-15.36 36.352zM102.4 224q0-63.488 45.056-108.544t108.544-45.056 108.544 45.056 45.056 108.544-45.056 108.544-108.544 45.056-108.544-45.056-45.056-108.544zM153.6 224q0 41.984 30.208 72.192t72.192 30.208 72.192-30.208 30.208-72.192-30.208-72.192-72.192-30.208-72.192 30.208-30.208 72.192z"/>
<glyph unicode="à" d="M0 46.848q0 38.912 29.184 57.344 14.848 9.728 27.648 14.848 58.368 25.088 62.464 27.648-10.752 15.872-27.648 34.816-26.112 30.72-30.72 36.352-55.808 67.584-48.128 126.464 3.584 28.16 21.504 46.592 6.656 7.168 21.504 16.384 18.944 10.752 23.040 12.8 2.56 1.024 11.776 5.12t15.36 6.656l24.064 10.752 35.328 15.36q29.696 12.8 44.032 20.48 10.24 5.632 12.8-3.072 0-5.632-13.824-12.8-31.232-20.48-32.768-58.368-0.512-14.848 2.56-29.696t6.656-24.064 13.312-23.552 13.824-19.456 17.92-20.48 16.384-18.432q3.072-3.584 14.848-16.896t16.896-19.456 14.336-19.456 13.312-23.552 8.192-25.088 4.096-30.208q0-19.456-6.656-34.816-6.144-16.384-14.848-26.624t-24.576-20.48q-17.92-10.752-27.136-15.36-11.776-6.144-31.232-13.824-8.192-3.072-18.432-7.68t-11.776-5.12l-45.568-19.968-18.432-9.216q-16.384-8.192-25.6-10.752-43.52-10.752-68.096 12.288t-24.576 62.976z" horiz-adv-x="316"/>
<glyph unicode="á" d="M1.024 256.768q5.12 81.408 38.4 136.192 25.088 40.96 49.152 58.368t71.168 25.6q15.36 2.56 29.184 3.072t26.112-2.048 22.528-6.144 19.968-10.24 17.408-13.312 15.36-16.384 13.824-17.92 12.288-19.968 10.752-20.48 10.752-20.992q3.584-7.168 7.168-15.36t7.68-18.432 6.656-15.872q4.096 24.576 29.184 96.256t34.816 74.24q46.592 10.752 74.24 0 2.048-1.024 4.608-4.096t3.584-4.096q-0.512-9.216-3.072-19.968t-4.608-16.896-6.656-18.944-6.144-15.872l-81.92-224.768q-3.584-17.408 9.728-46.080t34.816-47.616 37.888-11.264q5.12 2.56 9.216 10.752t7.168 10.752q9.216 7.68 36.352 8.192t34.304-9.728q8.192-14.848 5.632-32.256t-15.872-33.792-30.72-29.184-37.888-18.944-37.888-2.56q-14.848 3.072-27.648 9.728t-20.992 13.312-17.408 18.944-14.336 19.968-13.824 23.040-13.312 22.528q-2.048-1.024-3.072-2.048-12.288-29.696-41.472-54.784t-65.024-38.4-76.8-10.24-74.24 27.648q-43.52 31.744-67.072 104.448t-18.944 153.6zM79.36 263.424q-6.656-55.296 4.608-108.032t37.376-72.192q14.336-10.752 28.672-15.872t26.624-6.144 25.088 5.12 22.016 10.752 20.992 17.92 18.432 20.48 16.896 23.552 14.336 22.016 12.8 21.504q2.56 4.608 4.096 7.168-19.456 82.432-32.768 114.176-37.376 88.576-103.424 79.36-28.672-4.096-41.472-11.264t-25.6-25.088q-20.992-28.16-27.648-83.456z" horiz-adv-x="577"/>
<glyph unicode="â" d="M0 265.984q0 62.464 47.616 107.52 29.696 28.16 68.608 38.4t78.336-1.024 70.656-43.52q22.528-23.552 32.256-54.784t7.68-59.392-12.288-52.736q-9.728-20.992-1.536-47.616t20.48-45.568 26.112-35.328 13.824-16.896l-5.632 4.608q-5.12 5.12-11.264 10.752t-15.872 13.312-19.456 13.824-22.016 12.8-23.040 9.728-23.040 4.096-22.016-3.584q-24.064-9.728-53.248-10.24t-59.904 11.264-52.736 35.328q-44.032 46.592-44.032 109.056zM67.584 276.224q-4.608-35.328 17.408-64t57.344-33.28 63.488 17.408 32.768 57.344-16.896 63.488-56.832 32.768-64-16.896-33.28-56.832zM312.32 426.752q10.752 30.208 37.888 45.056t57.856 4.608q29.696-9.216 44.544-36.864t4.608-59.392q-12.288-36.864-58.368-53.248-15.872-5.632-28.672-17.408t-17.92-19.456-11.776-20.992q11.264 48.128-12.288 81.408-28.16 40.96-15.872 76.288zM331.776 173.312q1.024 47.104 32.256 79.36t77.824 32.256q45.568 0 77.824-31.744t32.256-80.384q0-56.32-56.32-99.84-19.456-14.848-31.744-36.352t-15.872-34.816-6.656-34.304q-2.048 20.48-5.12 34.304t-15.36 35.84-33.28 37.888q-56.832 42.496-56.32 97.792zM351.232 414.976q-5.632-13.824 0.512-28.16t19.968-19.968 27.648 0 19.456 19.456q5.632 14.336 0 28.16t-19.456 19.456-28.16 0-19.968-19.456zM385.536 151.296q9.728-23.552 33.792-33.792 23.552-9.728 47.104 0.512t33.28 33.792 0 47.104-33.28 33.792q-23.552 9.728-47.104 0t-33.28-33.28q-9.728-24.064-0.512-47.616z" horiz-adv-x="552"/>
<glyph unicode="ã" d="M0-10.496q0 26.112 31.232 54.784t62.976 45.568l7.68-11.264q-22.528-16.384-46.592-42.496t-30.208-46.080q44.544 13.824 135.68 194.048 33.28 67.072 52.736 133.632-16.896 54.784-16.896 103.424 0 58.88 24.064 58.88 11.776 0 17.408-1.024t10.752-6.656 5.12-17.408q0-7.68-1.536-14.336l-13.824 0.512q-1.024 13.312-8.704 20.992-6.144-10.24-6.144-35.328 0-19.456 4.608-48.128 1.536 9.216 4.608 27.648t5.12 27.648l13.312-1.536q-1.024-77.824-7.168-111.616 18.432-54.784 44.544-89.088t73.216-60.928q34.816 3.584 59.392 3.584 91.136 0 91.136-35.84 0-5.632-2.56-12.288l-1.536 0.512q-2.56-21.504-34.304-21.504-53.248 0-122.88 36.864-112.64-11.264-199.168-41.984-75.264-131.584-120.32-131.584-3.584 0-7.168 1.024t-6.656 2.56-7.168 3.584-6.144 3.584q-4.096 4.096-4.096 11.264zM162.816 120.064q68.608 27.648 152.576 43.52-52.736 37.376-83.968 107.008-18.432-61.952-68.608-150.528zM411.648 145.664q46.080-17.92 72.704-17.92 7.68 0 11.264 1.536 0 16.384-74.24 16.384h-9.728z"/>
<glyph unicode="ä" d="M0 189.184q0 35.84 10.752 68.096t25.088 52.736 33.28 38.4 29.184 24.576 19.456 12.288q5.12 2.56 15.36 7.68t15.872 8.192 14.848 8.704 17.92 12.8q21.504 17.408 25.6 57.856 37.376-45.056 54.272-56.32 12.8-8.704 37.888-19.968t37.888-18.944q9.728-5.632 18.432-12.288t27.648-25.088 32.256-38.912 24.064-53.76 10.752-70.144q0-95.232-65.536-156.16t-157.184-60.928q-59.392 0-111.104 28.672t-83.456 79.872-31.744 113.152zM97.28 111.872q-1.024-32.256 21.504-47.616 15.872-10.752 48.128-10.752 20.992 0 50.176 15.36t53.76 30.208 36.352 14.336 39.936-28.672 36.352-28.672q10.24-0.512 17.408 4.608t16.384 18.432q16.896 25.088 16.896 59.904 0 14.848-7.68 28.16t-24.064 13.312q-11.264 0-47.104-24.064t-48.128-24.576q-11.264 0-31.232 14.336t-45.568 28.672-50.688 14.336q-33.28-0.512-57.344-23.040t-24.576-52.224zM202.24 19.712q-6.144-5.12 0-10.24 23.552-21.504 84.48-15.872 11.776 1.024 24.576 6.144t18.944 9.216 8.704 6.144 2.048 8.192q-1.536 6.144-7.168 1.536-20.992-16.384-63.488-16.384-38.4 0-56.32 14.336-1.536 1.024-4.096 1.024t-7.168-3.584zM248.32 46.336q3.584-4.096 14.336 5.632 1.024 0.512 4.096 3.072t4.096 3.584 4.096 2.56 5.12 2.56 6.144 1.024 8.192 0.512q8.192 0 13.312-2.56t6.656-4.096 4.096-6.656 4.096-6.144 4.096 0.512q6.144 3.584 3.584 10.24-4.608 13.312-11.264 17.408-6.144 4.608-22.016 4.608-13.312 0-20.992-3.072-8.704-3.584-22.528-16.384-7.68-6.144-3.584-12.8z" horiz-adv-x="448"/>
<glyph unicode="å" d="M0 89.856q5.632 7.68 16.384 13.312t25.088 10.24 20.992 8.192q9.728 0 17.408-2.56t17.408-7.68 12.8-6.656q24.064-10.752 133.12-60.928 9.728-2.048 18.432 0t20.48 9.216 12.288 7.68q10.24 4.608 39.424 17.92t45.056 20.48q2.048 1.024 21.504 10.752t31.232 12.288q6.656 1.024 14.336-0.512t12.288-4.096 11.776-6.656 9.216-5.632 8.192-3.072 9.728-4.096 5.632-5.632q1.536-2.048 2.048-7.168-5.12-6.656-15.872-12.288t-26.112-11.264-20.48-8.192q-22.016-10.24-66.048-31.744t-66.048-31.744q-3.584-1.536-10.752-6.144t-12.288-6.656-13.312-5.632-14.336-3.584-15.36 1.024l-135.168 62.976q-3.072 1.536-16.384 7.168t-26.624 11.264-27.648 12.288-24.064 12.288-11.264 8.704q-2.048 2.048-2.048 6.656zM0 227.072q5.632 7.68 16.384 12.8t25.6 10.24 21.504 7.68q9.728 0 17.408-2.56t17.92-7.68 13.312-7.168q21.504-9.728 65.024-29.696t65.536-30.208q9.728-2.56 18.944-0.512t19.968 8.704 12.8 7.68q34.816 16.384 81.92 36.864 5.632 2.56 16.384 8.704t19.968 10.24 18.432 5.632q8.192 1.536 16.384-0.512t19.456-8.704 11.776-6.656q2.56-1.536 8.192-3.584t9.216-4.096 6.144-5.632q1.536-2.56 2.048-7.168-5.12-7.168-16.384-13.312t-27.136-11.776-20.992-8.192q-24.576-11.776-69.632-33.28t-62.976-30.208q-3.584-1.536-13.312-7.168t-14.848-7.68-16.896-5.12-18.432 0q-109.568 51.712-133.12 62.464-3.072 1.536-22.528 9.728t-35.84 15.36-31.744 15.36-17.408 11.776q-2.048 2.048-2.048 7.168zM0 363.776q5.12 7.68 16.384 13.824t27.136 11.776 20.992 8.192l178.176 82.944q15.36 0 27.648-3.584t29.184-13.312 20.48-11.264q19.968-9.216 59.904-28.16t59.904-28.16q2.048-1.024 18.944-7.68t28.16-12.288 13.824-10.24q1.536-2.048 2.048-6.656-4.608-6.656-13.312-11.776t-22.528-9.728-17.92-7.168q-24.064-11.264-71.68-34.304t-71.168-34.304q-3.072-1.536-10.24-5.632t-11.776-6.656-12.8-5.632-13.824-3.072-14.336 0.512q-125.44 58.368-131.072 60.928-2.048 1.024-32.256 14.336t-52.224 24.064-24.576 15.36q-2.048 2.048-2.048 6.656z" horiz-adv-x="501"/>
<glyph unicode="ç" d="M1.024 311.040q-4.096 110.080 6.144 138.24 2.048 4.608 5.12 8.192t7.168 6.656 7.168 5.12 9.216 5.12 8.704 4.608q69.632 0 197.632 1.024t168.448 1.024h48.128t28.16-0.512 29.184-1.536 23.040-3.072 16.896-5.12q8.192-4.608 13.824-12.288t8.704-15.36 4.096-20.48 1.024-21.504-0.512-25.6-0.512-25.6q0-105.984-11.776-167.424t-49.152-109.056q-35.84-45.056-84.48-71.68t-98.816-32.256-102.4 5.632-95.744 37.888-77.312 68.096-49.152 93.184q-7.68 26.624-11.776 136.704zM119.808 312.064q-13.312-14.336 7.68-46.080t53.248-63.488q1.024-1.024 20.48-20.48t27.648-26.624 24.064-18.432 29.184-14.848q5.632-1.536 11.776-1.536t10.24 0.512 10.24 3.584 8.192 4.096 8.192 6.144 6.144 5.632 6.144 5.632l1.536 1.536q4.608 4.608 31.232 28.672t44.032 41.472 34.816 40.448 17.92 38.912q-7.68 20.48-19.456 28.672t-26.112 4.608-28.672-13.312-30.208-24.576-28.672-28.672-25.6-26.112-18.944-16.896q-13.824 8.192-37.376 30.72t-41.984 41.984-37.888 32.768-28.16 7.68q-12.8-7.68-28.672-20.992z" horiz-adv-x="582"/>
<glyph unicode="è" d="M0 224.512q0 52.224 20.48 99.328 40.448 95.232 135.68 135.68 47.104 20.48 99.328 20.48t99.328-20.48q94.208-39.936 135.68-135.68 20.48-48.64 20.48-99.328t-20.48-99.328q-41.472-96.256-135.68-136.704-47.104-20.48-99.328-20.48t-99.328 20.48q-95.232 40.96-135.68 136.704-20.48 47.104-20.48 99.328zM39.936 224.512q0-72.192 43.008-129.024 42.496-55.808 111.104-79.36v40.96q0 30.72 20.48 44.544-10.24 0.512-24.064 3.584-26.112 4.608-44.544 16.384-46.592 28.16-46.592 101.888 0 38.4 25.6 65.536-11.776 30.208 2.56 65.536h10.24q5.12 0 12.8-2.56 19.968-6.144 44.544-22.528 31.232 8.192 61.44 8.192t61.952-8.192q19.968 13.312 37.376 20.48 16.384 6.144 23.552 5.12l6.144-0.512q13.824-35.328 2.56-65.536 25.6-27.136 25.6-65.536 0-57.344-28.16-86.528-15.36-16.384-40.448-25.6-20.992-7.68-46.592-9.728 20.992-14.848 20.992-44.544v-40.96q66.048 23.552 109.056 80.384 41.984 56.32 41.984 128 0 43.52-16.896 83.968-16.384 38.912-46.080 68.608-28.672 28.672-68.608 45.568-40.96 17.408-83.456 17.408-41.984 0-83.968-17.408-38.4-16.384-68.608-45.568-28.672-29.696-46.080-68.608-16.896-40.448-16.896-83.968z" horiz-adv-x="511"/>
<glyph unicode="é" d="M0 406.272q0 30.72 65.024 52.224t156.672 21.504q92.16 0 157.184-21.504t65.024-52.224q0-6.144-36.864-225.28-4.608-23.552-56.832-45.568t-128-22.016-128 22.016-56.32 45.568q-37.376 211.968-37.376 225.28zM54.784 108.8v2.048q0 8.704 7.68 8.704 3.072 0 6.144-2.56 24.064-18.944 62.464-29.696t64.512-11.776l26.112-1.536q4.096 0 11.264 0.512t27.136 2.56 38.4 6.656 40.448 12.8 37.376 20.992l5.632 2.56q8.192 0 8.192-8.704 0-1.024-0.512-2.048-11.264-61.952-15.36-82.432-5.632-25.088-49.152-41.984t-102.4-16.896-102.4 16.896-48.64 41.984q-9.728 48.64-15.872 82.432zM79.872 413.952q0-12.288 41.984-21.504t100.352-9.216q58.88 0 100.864 8.704t41.984 20.992q0 12.8-41.984 22.016t-100.864 9.216-100.352-8.704-41.472-21.504zM151.040 233.216q0-29.184 20.992-50.176t50.176-20.992 50.176 20.992 20.992 50.176-20.992 50.176-50.176 20.992-50.176-20.992-20.992-50.176zM186.368 233.216q0-14.336 10.24-25.088t25.088-10.752 25.088 10.752 10.24 25.088-10.24 25.088-25.088 10.752-25.088-10.752-10.24-25.088z" horiz-adv-x="444"/>
<glyph unicode="ê" d="M0 116.992h12.288q-3.584 7.168-3.584 17.408 0 33.28 23.552 95.232t45.056 94.208q16.384 25.088 43.008 25.088 23.040 0 23.040-17.408 0-26.624-36.864-101.888h41.984q10.24 31.744 27.136 64.512 17.408 34.816 37.376 46.592t59.392 11.776q14.848 0 29.184-7.168t14.336-20.48-6.656-21.504-19.456-11.776-22.528-4.608-23.552-1.024h-4.608q-7.68-11.264-14.336-29.696 9.216 1.536 18.944 1.536 32.768 0 32.768-19.456 0-4.608-1.536-9.216-8.192-30.208-45.056-30.208-11.776 0-25.6 2.56-8.192-24.576-10.752-37.376 26.624 5.12 39.424 5.12t22.016-6.144 9.216-18.432q0-17.408-12.288-29.184t-27.648-15.872-32.768-4.096q-33.28 0-49.152 20.992-10.24 12.288-10.24 31.744 0 11.776 1.536 23.040 4.096 25.6 14.336 57.344h-41.984q-4.608-9.728-13.312-28.672t-12.8-28.16h-0.512l-3.584-7.168q11.264 1.024 17.408 1.024 30.208 0 30.208-20.48 0-26.112-19.968-37.888t-47.616-11.776q-33.28 0-43.52 19.968h-12.288zM275.456 156.928q0 19.456 8.192 48.64t17.408 50.688q9.728 23.040 18.432 37.888t22.016 29.184 31.232 20.992 41.472 7.168q25.6 0 44.544-10.24t18.944-33.28q0-19.456-10.752-35.328t-29.184-15.872q-26.624 0-26.624 16.896 0 3.072 2.048 9.216t2.048 9.728q0 6.656-11.264 6.656-8.704 0-16.896-7.168t-14.848-22.528-9.216-20.992-7.68-19.968q-16.384-43.008-16.384-60.928 0-14.848 14.336-14.848 12.8 0 22.528 12.8t13.312 27.136q-21.504 1.024-21.504 17.92 0 18.944 14.336 27.648t33.792 8.704q26.624 0 33.28-17.92 2.048-5.632 2.048-13.312 0-25.6-14.848-54.272t-35.328-44.544q-27.136-20.992-61.44-20.992-34.816 0-51.2 20.992-12.288 14.848-12.288 39.936zM443.904 116.992h21.504q-9.216 13.312-9.216 33.792 0 40.448 25.088 104.448 9.728 24.064 16.896 37.888t18.944 28.672 29.184 21.504 40.448 6.656q61.44 0 61.44-58.88 0-25.6-11.264-61.44-7.68-26.112-20.992-56.32-18.944-39.424-37.376-55.808-23.552-20.992-60.928-20.992-36.864 0-51.712 20.992h-21.504zM517.632 172.8h1.536q-3.072-17.92 11.264-17.92 11.776 0 22.016 19.456h-1.024q8.704 18.432 23.040 59.392t14.336 52.736q0 12.288-10.752 12.288-10.24 0-16.896-8.192-9.216-13.312-26.624-60.928-12.8-34.304-16.896-56.32z" horiz-adv-x="648"/>
<glyph unicode="ë" d="M0 224q0 69.632 34.304 128.512t93.184 93.184 128.512 34.304 128.512-34.304 93.184-93.184 34.304-128.512-34.304-128.512-93.184-93.184-128.512-34.304-128.512 34.304-93.184 93.184-34.304 128.512zM106.496 60.672q0-13.312 13.312-13.312h90.112q14.336 0 14.336 13.312v24.576q0 13.312-14.336 13.312h-14.848v235.52h14.848q14.336 0 14.336 13.312v24.576q0 13.312-14.336 13.312h-90.112q-13.312 0-13.312-13.312v-24.576q0-13.312 13.312-13.312h15.872v-235.52h-15.872q-13.312 0-13.312-13.312v-24.576zM248.32 58.624q0-12.288 12.288-12.288h30.208q11.264 0 11.264 12.288v131.584q0 52.736 40.448 52.736 21.504 0 21.504-26.112v-158.208q0-12.288 11.264-12.288h31.232q10.752 0 10.752 12.288v170.496q0 62.464-56.32 62.464-34.304 0-62.464-32.768l-3.584 18.432q-2.048 11.264-12.288 11.264h-22.016q-12.288 0-12.288-12.8v-217.088z"/>
<glyph unicode="ì" d="M0-32v213.504l38.912-0.512-1.536-171.52h256.512v171.008h40.448v-212.48h-334.336zM62.976 80.128h200.704v-42.496h-200.704v42.496zM63.488 113.408l4.096 43.52 201.216-19.456-4.096-43.52zM74.24 201.984l11.776 41.984 194.56-54.784-12.288-41.984zM110.592 304.896l22.528 37.376 173.056-104.448-23.040-37.376zM196.096 409.856l35.328 25.6 117.76-164.352-35.84-25.6zM325.12 472.832l43.008 7.168 33.28-199.168-43.008-7.168z" horiz-adv-x="402"/>
<glyph unicode="í" d="M0 480h82.432l100.864-154.112q25.088-38.4 52.224-87.040 24.576 43.52 55.808 90.624l99.328 150.528h78.848l-204.288-294.912v-217.088h-68.096v217.088z" horiz-adv-x="470"/>
<glyph unicode="î" d="M0 216.32v17.408q0 57.856 43.008 100.864t110.080 43.008q69.632 0 126.464-57.344 10.752-10.24 27.648-31.744l49.152-64.512q19.968-26.624 26.624-33.28 37.888-37.888 75.264-37.888 30.208 0 49.152 20.48 16.896 16.896 19.456 43.52 0.512 2.56 0.512 7.168 0 11.264-3.072 20.992-4.608 15.872-16.896 29.184 0 0.512-0.512 0.512-19.456 20.48-48.64 20.48-39.936 0-75.264-37.888l-43.52 56.832q-3.072 4.096-5.12 6.656 28.16 30.72 57.856 44.032t68.608 13.312q63.488 0 109.568-43.008h0.512l0.512-0.512q42.496-42.496 42.496-110.080 0-15.36-2.56-32.256-8.192-45.568-40.448-78.336-31.232-31.744-76.8-40.448-16.896-2.56-31.744-2.56-71.68 0-126.976 55.808-11.776 11.776-28.672 34.304l-49.152 63.488q-19.968 26.624-26.624 33.28-37.888 37.888-76.288 37.888-11.264 0-20.48-3.072-14.848-4.096-28.16-17.408-14.848-16.384-18.432-36.352-1.536-7.168-1.536-14.336 0-29.184 18.944-49.664l1.024-1.024q19.968-20.48 49.664-20.48 40.448 0 75.264 38.4l43.008-56.32 4.608-6.144q-29.184-31.232-58.88-44.544t-66.56-13.312q-67.072 0-110.592 42.496v0.512q-32.256 32.256-39.936 78.336-2.56 12.8-2.56 24.064z" horiz-adv-x="614"/>
<glyph unicode="" d="M24-32h224c4.416 0 8 3.584 8 8s-3.584 8-8 8h-224c-4.416 0-8 3.584-8 8v464c0 4.416 3.584 8 8 8h336c4.416 0 8-3.584 8-8v-80c0-4.416 3.584-8 8-8s8 3.584 8 8v80c0 13.232-10.768 24-24 24h-336c-13.232 0-24-10.768-24-24v-464c0-13.232 10.768-24 24-24zM288 312v-320c0-13.232 10.768-24 24-24h176c13.232 0 24 10.768 24 24v320c0 13.232-10.768 24-24 24h-176c-13.232 0-24-10.768-24-24zM496 312v-320c0-4.416-3.584-8-8-8h-176c-4.416 0-8 3.584-8 8v320c0 4.416 3.584 8 8 8h176c4.416 0 8-3.584 8-8zM176 32c0-8.837 7.163-16 16-16s16 7.163 16 16c0 8.837-7.163 16-16 16s-16-7.163-16-16zM384 32c0-8.837 7.163-16 16-16s16 7.163 16 16c0 8.837-7.163 16-16 16s-16-7.163-16-16z"/>
<glyph unicode="" d="M56 64c4.416 0 8 3.584 8 8v376c0 9.568 6.432 16 16 16h512c9.12 0 16-7.488 16-17.424v-374.576c0-4.416 3.584-8 8-8s8 3.584 8 8v374.576c0 18.752-14.048 33.424-32 33.424h-512c-18.544 0-32-13.456-32-32v-376c0-4.416 3.584-8 8-8zM104 432c-4.416 0-8-3.584-8-8v-352c0-4.416 3.584-8 8-8h464c4.416 0 8 3.584 8 8v352c0 4.416-3.584 8-8 8h-464zM560 80h-448v336h448v-336zM664 32h-656c-4.416 0-8-3.584-8-8v-18.8c0-19.168 22.528-37.2 40-37.2h592c18.32 0 40 21.68 40 40v16c0 4.416-3.584 8-8 8zM656 8c0-9.424-14.576-24-24-24h-592c-10.096 0-24 12.288-24 21.2v10.8h640v-8z" horiz-adv-x="672"/>
<glyph unicode="" d="M24 80h280v-24c0-4.416 3.584-8 8-8s8 3.584 8 8v24h280c13.232 0 24 10.768 24 24v352c0 13.232-10.768 24-24 24h-576c-13.232 0-24-10.768-24-24v-352c0-13.232 10.768-24 24-24zM16 456c0 4.416 3.584 8 8 8h576c4.416 0 8-3.584 8-8v-352c0-4.416-3.584-8-8-8h-576c-4.416 0-8 3.584-8 8v352zM56 128h512c4.416 0 8 3.584 8 8v288c0 4.416-3.584 8-8 8h-512c-4.416 0-8-3.584-8-8v-288c0-4.416 3.584-8 8-8zM64 416h496v-272h-496v272zM224 32c-18.24 0-32-13.76-32-32v-24c0-4.416 3.584-8 8-8h224c4.416 0 8 3.584 8 8v22.8c0 18.608-14.048 33.2-32 33.2h-176zM416-1.2v-14.8h-208v16c0 9.424 6.576 16 16 16h176c9.12 0 16-7.392 16-17.2z" horiz-adv-x="624"/>
<glyph unicode="" d="M24-32h352c13.232 0 24 10.768 24 24v464c0 13.232-10.768 24-24 24h-352c-13.232 0-24-10.768-24-24v-464c0-13.232 10.768-24 24-24zM16 456c0 4.416 3.584 8 8 8h352c4.416 0 8-3.584 8-8v-464c0-4.416-3.584-8-8-8h-352c-4.416 0-8 3.584-8 8v464zM56 48h288c4.416 0 8 3.584 8 8v368c0 4.416-3.584 8-8 8h-288c-4.416 0-8-3.584-8-8v-368c0-4.416 3.584-8 8-8zM64 416h272v-352h-272v352zM192 16c0-8.837 7.163-16 16-16s16 7.163 16 16c0 8.837-7.163 16-16 16s-16-7.163-16-16z" horiz-adv-x="400"/>
<glyph unicode="" d="M24-32h256c13.232 0 24 10.768 24 24v464c0 13.232-10.768 24-24 24h-256c-13.232 0-24-10.768-24-24v-464c0-13.232 10.768-24 24-24zM16 456c0 4.416 3.584 8 8 8h256c4.416 0 8-3.584 8-8v-464c0-4.416-3.584-8-8-8h-256c-4.416 0-8 3.584-8 8v464zM40 48h224c4.416 0 8 3.584 8 8v336c0 4.416-3.584 8-8 8h-224c-4.416 0-8-3.584-8-8v-336c0-4.416 3.584-8 8-8zM48 384h208v-320h-208v320zM144 16c0-8.837 7.163-16 16-16s16 7.163 16 16c0 8.837-7.163 16-16 16s-16-7.163-16-16zM120 416h64c4.416 0 8 3.584 8 8s-3.584 8-8 8h-64c-4.416 0-8-3.584-8-8s3.584-8 8-8z" horiz-adv-x="304"/>
<glyph unicode="" d="M24-32h336c13.232 0 24 10.768 24 24v336c0 0.272-0.128 0.496-0.144 0.752-0.032 0.368-0.128 0.688-0.208 1.040-0.272 1.136-0.736 2.16-1.44 3.056-0.112 0.144-0.096 0.32-0.208 0.464l-128 144c-0.048 0.048-0.112 0.048-0.16 0.096-0.96 1.024-2.176 1.728-3.568 2.144-0.304 0.096-0.576 0.128-0.896 0.176-0.464 0.080-0.896 0.272-1.376 0.272h-224c-13.232 0-24-10.768-24-24v-464c0-13.232 10.768-24 24-24zM256 450.96l102.192-114.96h-94.192c-3.52 0-8 6.72-8 12v102.96zM16 456c0 4.416 3.6 8 8 8h216v-116c0-12.944 10.48-28 24-28h104v-328c0-4.416-3.6-8-8-8h-336c-4.48 0-8 3.52-8 8v464zM88 256h208c4.416 0 8 3.584 8 8s-3.584 8-8 8h-208c-4.416 0-8-3.584-8-8s3.584-8 8-8zM88 192h208c4.416 0 8 3.584 8 8s-3.584 8-8 8h-208c-4.416 0-8-3.584-8-8s3.584-8 8-8zM88 320h96c4.416 0 8 3.584 8 8s-3.584 8-8 8h-96c-4.416 0-8-3.584-8-8s3.584-8 8-8zM88 128h208c4.416 0 8 3.584 8 8s-3.584 8-8 8h-208c-4.416 0-8-3.584-8-8s3.584-8 8-8zM88 64h208c4.416 0 8 3.584 8 8s-3.584 8-8 8h-208c-4.416 0-8-3.584-8-8s3.584-8 8-8z" horiz-adv-x="384"/>
<glyph unicode="" d="M24.192 32h287.808c13.232 0 24 10.768 24 24v304c0 0.368-0.16 0.688-0.208 1.040s-0.112 0.656-0.208 0.992c-0.368 1.376-0.96 2.656-1.952 3.632l-111.984 111.984c-0.976 0.976-2.256 1.568-3.632 1.952-0.336 0.096-0.64 0.16-0.992 0.208-0.336 0.032-0.656 0.192-1.024 0.192h-191.904c-13.28 0-24.096-10.768-24.096-24v-400c0-13.232 10.848-24 24.192-24zM224 452.688l84.688-84.688h-76.688c-4.4 0-8 3.584-8 8v76.688zM16 456c0 4.416 3.632 8 8.096 8h183.904v-88c0-13.232 10.768-24 24-24h88v-296c0-4.416-3.6-8-8-8h-287.808c-4.528 0-8.192 3.584-8.192 8v400zM72 288h192c4.416 0 8 3.584 8 8s-3.584 8-8 8h-192c-4.416 0-8-3.584-8-8s3.584-8 8-8zM72 224h192c4.416 0 8 3.584 8 8s-3.584 8-8 8h-192c-4.416 0-8-3.584-8-8s3.584-8 8-8zM72 352h80c4.416 0 8 3.584 8 8s-3.584 8-8 8h-80c-4.416 0-8-3.584-8-8s3.584-8 8-8zM72 160h192c4.416 0 8 3.584 8 8s-3.584 8-8 8h-192c-4.416 0-8-3.584-8-8s3.584-8 8-8zM72 96h192c4.416 0 8 3.584 8 8s-3.584 8-8 8h-192c-4.416 0-8-3.584-8-8s3.584-8 8-8zM344 400h72v-88c0-13.232 10.768-24 24-24h88v-296c0-4.416-3.6-8-8-8h-287.808c-4.528 0-8.192 3.584-8.192 8v16c0 4.416-3.584 8-8 8s-8-3.584-8-8v-16c0-13.232 10.848-24 24.192-24h287.808c13.232 0 24 10.768 24 24v304c0 0.368-0.16 0.688-0.208 1.040s-0.112 0.656-0.208 0.992c-0.368 1.376-0.96 2.656-1.952 3.632l-111.984 111.984c-0.976 0.992-2.272 1.584-3.648 1.952-0.336 0.096-0.624 0.144-0.976 0.192-0.336 0.048-0.656 0.208-1.024 0.208h-80c-4.416 0-8-3.584-8-8s3.584-8 8-8zM440 304c-4.4 0-8 3.584-8 8v76.688l84.688-84.688h-76.688zM376 224h96c4.416 0 8 3.584 8 8s-3.584 8-8 8h-96c-4.416 0-8-3.584-8-8s3.584-8 8-8zM376 160h96c4.416 0 8 3.584 8 8s-3.584 8-8 8h-96c-4.416 0-8-3.584-8-8s3.584-8 8-8zM376 96h96c4.416 0 8 3.584 8 8s-3.584 8-8 8h-96c-4.416 0-8-3.584-8-8s3.584-8 8-8zM376 32h96c4.416 0 8 3.584 8 8s-3.584 8-8 8h-96c-4.416 0-8-3.584-8-8s3.584-8 8-8z" horiz-adv-x="544"/>
<glyph unicode="" d="M24-32h336c13.232 0 24 10.768 24 24v120c0 0.16-0.080 0.288-0.096 0.448 0.88 0.56 1.792 1.088 2.656 1.68l127.776-127.776c1.568-1.568 3.616-2.352 5.664-2.352s4.096 0.784 5.664 2.336c3.12 3.12 3.12 8.192 0 11.312l-126.608 126.608c20.224 18.992 32.944 45.888 32.944 75.744 0 36.752-19.216 69.056-48.096 87.552 0.016 0.16 0.096 0.288 0.096 0.448v40c0 0.272-0.128 0.496-0.144 0.752-0.032 0.368-0.128 0.688-0.208 1.040-0.272 1.136-0.736 2.16-1.44 3.056-0.112 0.144-0.096 0.32-0.208 0.464l-128 144c-0.048 0.048-0.112 0.048-0.16 0.096-0.96 1.040-2.192 1.728-3.568 2.144-0.304 0.096-0.576 0.128-0.896 0.176-0.464 0.080-0.896 0.272-1.376 0.272h-224c-13.232 0-24-10.768-24-24v-464c0-13.232 10.768-24 24-24zM416 200c0-48.528-39.488-88-88-88s-88 39.472-88 88 39.488 88 88 88 88-39.472 88-88zM256 450.96l102.192-114.96h-94.192c-3.52 0-8 6.72-8 12v102.96zM16 456c0 4.416 3.6 8 8 8h216v-116c0-12.944 10.48-28 24-28h104v-24.016c-12.32 5.152-25.824 8.016-40 8.016-29.408 0-55.936-12.32-74.864-32h-165.136c-4.416 0-8-3.584-8-8s3.584-8 8-8h152.512c-9.040-14.064-14.752-30.416-16.096-48h-136.416c-4.416 0-8-3.584-8-8s3.584-8 8-8h136.4c1.344-17.584 7.072-33.936 16.096-48h-152.496c-4.416 0-8-3.584-8-8s3.584-8 8-8h164c0.336 0 0.624 0.144 0.96 0.192 18.944-19.792 45.552-32.192 75.040-32.192 14.176 0 27.68 2.864 40 8.032v-112.032c0-4.416-3.6-8-8-8h-336c-4.48 0-8 3.52-8 8v464zM88 320h96c4.416 0 8 3.584 8 8s-3.584 8-8 8h-96c-4.416 0-8-3.584-8-8s3.584-8 8-8zM88 64h208c4.416 0 8 3.584 8 8s-3.584 8-8 8h-208c-4.416 0-8-3.584-8-8s3.584-8 8-8z" horiz-adv-x="528"/>
<glyph unicode="" d="M24-32h400c13.904 0 24 10.096 24 24v448c0 13.904-10.096 24-24 24h-64c-4.416 0-8-3.584-8-8s3.584-8 8-8h64c5.008 0 8-2.992 8-8v-448c0-5.008-2.992-8-8-8h-400c-5.008 0-8 2.992-8 8v448c0 5.008 2.992 8 8 8h64c4.416 0 8 3.584 8 8s-3.584 8-8 8h-64c-13.904 0-24-10.096-24-24v-448c0-13.904 10.096-24 24-24zM88 400c4.416 0 8 3.584 8 8s-3.584 8-8 8h-32c-4.416 0-8-3.584-8-8v-384c0-4.416 3.584-8 8-8h336c4.416 0 8 3.584 8 8v384c0 4.416-3.584 8-8 8h-32c-4.416 0-8-3.584-8-8s3.584-8 8-8h24v-368h-320v368h24zM144 368h160c19.44 0 32 12.56 32 32v72c0 4.416-3.584 8-8 8h-208c-4.416 0-8-3.584-8-8v-72c0-19.44 12.56-32 32-32zM128 464h192v-64c0-10.624-5.392-16-16-16h-160c-10.608 0-16 5.376-16 16v64zM136 224h176c4.416 0 8 3.584 8 8s-3.584 8-8 8h-176c-4.416 0-8-3.584-8-8s3.584-8 8-8zM136 288h176c4.416 0 8 3.584 8 8s-3.584 8-8 8h-176c-4.416 0-8-3.584-8-8s3.584-8 8-8zM136 160h176c4.416 0 8 3.584 8 8s-3.584 8-8 8h-176c-4.416 0-8-3.584-8-8s3.584-8 8-8zM136 96h176c4.416 0 8 3.584 8 8s-3.584 8-8 8h-176c-4.416 0-8-3.584-8-8s3.584-8 8-8z" horiz-adv-x="448"/>
<glyph unicode="" d="M592 16c19.136 0 32 12.864 32 32v424c0 4.416-3.584 8-8 8s-8-3.584-8-8v-424c0-13.92-10.032-16-16-16-1.648 0-16 0.448-16 16v424c0 4.416-3.584 8-8 8s-8-3.584-8-8v-424c0-21.008 16.096-32 32-32zM72 144h160c4.416 0 8 3.584 8 8v144c0 4.416-3.584 8-8 8h-160c-4.416 0-8-3.584-8-8v-144c0-4.416 3.584-8 8-8zM80 288h144v-128h-144v128zM72 352h384c4.416 0 8 3.584 8 8v64c0 4.416-3.584 8-8 8h-384c-4.416 0-8-3.584-8-8v-64c0-4.416 3.584-8 8-8zM80 416h368v-48h-368v48zM456 304h-160c-4.416 0-8-3.584-8-8s3.584-8 8-8h160c4.416 0 8 3.584 8 8s-3.584 8-8 8zM456 256h-160c-4.416 0-8-3.584-8-8s3.584-8 8-8h160c4.416 0 8 3.584 8 8s-3.584 8-8 8zM456 208h-160c-4.416 0-8-3.584-8-8s3.584-8 8-8h160c4.416 0 8 3.584 8 8s-3.584 8-8 8zM456 160h-160c-4.416 0-8-3.584-8-8s3.584-8 8-8h160c4.416 0 8 3.584 8 8s-3.584 8-8 8zM456 112h-160c-4.416 0-8-3.584-8-8s3.584-8 8-8h160c4.416 0 8 3.584 8 8s-3.584 8-8 8zM72 96h160c4.416 0 8 3.584 8 8s-3.584 8-8 8h-160c-4.416 0-8-3.584-8-8s3.584-8 8-8zM456 64h-160c-4.416 0-8-3.584-8-8s3.584-8 8-8h160c4.416 0 8 3.584 8 8s-3.584 8-8 8zM72 48h160c4.416 0 8 3.584 8 8s-3.584 8-8 8h-160c-4.416 0-8-3.584-8-8s3.584-8 8-8zM80-31.152h512c0.128 0 0.256 0 0.32 0 0.112 0 0.208 0.064 0.32 0.064 43.344 0.352 78.528 35.664 78.528 79.088v424c0 3.952-3.2 7.152-7.152 7.152s-7.152-3.2-7.152-7.152v-424c0-35.76-29.088-64.848-64.848-64.848s-64.864 29.088-64.864 64.848v424c0 3.952-3.2 7.152-7.152 7.152h-512c-3.952 0-7.152-3.2-7.152-7.152v-424c0-43.648 35.504-79.152 79.152-79.152zM15.152 464.848h497.68v-416.848c0-4.896 0.592-9.648 1.44-14.32 0.176-0.928 0.32-1.856 0.528-2.768 0.992-4.448 2.304-8.752 4.016-12.896 0.304-0.752 0.672-1.456 1.008-2.192 1.728-3.872 3.728-7.6 6.048-11.12 0.272-0.4 0.48-0.832 0.752-1.232 2.528-3.68 5.408-7.088 8.496-10.288 0.672-0.688 1.328-1.36 2.032-2.032 2.976-2.88 6.112-5.616 9.504-8h-466.656c-35.744 0-64.848 29.088-64.848 64.848v416.848z" horiz-adv-x="672"/>
<glyph unicode="" d="M376-32c13.904 0 24 10.096 24 24v448c0 13.904-10.096 24-24 24h-320c-13.904 0-24-10.096-24-24v-18.672c0-4.416 3.584-8 8-8s8 3.584 8 8v18.672c0 5.008 2.992 8 8 8h72.992v-464h-72.992c-5.008 0-8 2.992-8 8v14.672c0 4.416-3.584 8-8 8s-8-3.584-8-8v-14.672c0-13.904 10.096-24 24-24h320zM144 448h232c5.008 0 8-2.992 8-8v-448c0-5.008-2.992-8-8-8h-232v464zM432 8v416c0 4.416-3.584 8-8 8s-8-3.584-8-8v-416c0-4.416 3.584-8 8-8s8 3.584 8 8zM8 304h64c4.416 0 8 3.584 8 8s-3.584 8-8 8h-64c-4.416 0-8-3.584-8-8s3.584-8 8-8zM8 368h64c4.416 0 8 3.584 8 8s-3.584 8-8 8h-64c-4.416 0-8-3.584-8-8s3.584-8 8-8zM8 240h64c4.416 0 8 3.584 8 8s-3.584 8-8 8h-64c-4.416 0-8-3.584-8-8s3.584-8 8-8zM8 112h64c4.416 0 8 3.584 8 8s-3.584 8-8 8h-64c-4.416 0-8-3.584-8-8s3.584-8 8-8zM8 176h64c4.416 0 8 3.584 8 8s-3.584 8-8 8h-64c-4.416 0-8-3.584-8-8s3.584-8 8-8zM8 48h64c4.416 0 8 3.584 8 8s-3.584 8-8 8h-64c-4.416 0-8-3.584-8-8s3.584-8 8-8z" horiz-adv-x="432"/>
<glyph unicode="" d="M600 464h-256c-6.352 0-11.84-2.176-16-5.792-4.16 3.616-9.648 5.792-16 5.792h-256c-13.904 0-24-10.096-24-24v-448c0-13.904 10.096-24 24-24h256c6.352 0 11.84 2.176 16 5.792 4.16-3.616 9.648-5.792 16-5.792h256c13.904 0 24 10.096 24 24v448c0 13.904-10.096 24-24 24zM312-16h-256c-5.008 0-8 2.992-8 8v448c0 5.008 2.992 8 8 8h256c5.008 0 8-2.992 8-8v-448c0-5.008-2.992-8-8-8zM608-8c0-5.008-2.992-8-8-8h-256c-5.008 0-8 2.992-8 8v448c0 5.008 2.992 8 8 8h256c5.008 0 8-2.992 8-8v-448zM648 432c-4.416 0-8-3.584-8-8v-416c0-4.416 3.584-8 8-8s8 3.584 8 8v416c0 4.416-3.584 8-8 8zM8 0c4.416 0 8 3.584 8 8v416c0 4.416-3.584 8-8 8s-8-3.584-8-8v-416c0-4.416 3.584-8 8-8zM280 320h-192c-4.416 0-8-3.584-8-8s3.584-8 8-8h192c4.416 0 8 3.584 8 8s-3.584 8-8 8zM280 256h-192c-4.416 0-8-3.584-8-8s3.584-8 8-8h192c4.416 0 8 3.584 8 8s-3.584 8-8 8zM280 384h-192c-4.416 0-8-3.584-8-8s3.584-8 8-8h192c4.416 0 8 3.584 8 8s-3.584 8-8 8zM280 192h-192c-4.416 0-8-3.584-8-8s3.584-8 8-8h192c4.416 0 8 3.584 8 8s-3.584 8-8 8zM280 128h-192c-4.416 0-8-3.584-8-8s3.584-8 8-8h192c4.416 0 8 3.584 8 8s-3.584 8-8 8zM280 64h-192c-4.416 0-8-3.584-8-8s3.584-8 8-8h192c4.416 0 8 3.584 8 8s-3.584 8-8 8zM568 320h-192c-4.416 0-8-3.584-8-8s3.584-8 8-8h192c4.416 0 8 3.584 8 8s-3.584 8-8 8zM568 256h-192c-4.416 0-8-3.584-8-8s3.584-8 8-8h192c4.416 0 8 3.584 8 8s-3.584 8-8 8zM568 384h-192c-4.416 0-8-3.584-8-8s3.584-8 8-8h192c4.416 0 8 3.584 8 8s-3.584 8-8 8zM568 192h-192c-4.416 0-8-3.584-8-8s3.584-8 8-8h192c4.416 0 8 3.584 8 8s-3.584 8-8 8zM568 128h-192c-4.416 0-8-3.584-8-8s3.584-8 8-8h192c4.416 0 8 3.584 8 8s-3.584 8-8 8zM568 64h-192c-4.416 0-8-3.584-8-8s3.584-8 8-8h192c4.416 0 8 3.584 8 8s-3.584 8-8 8z" horiz-adv-x="672"/>
<glyph unicode="" d="M664 320c-4.416 0-8-3.584-8-8v-320c0-4.416-3.584-8-8-8h-624c-4.416 0-8 3.584-8 8v320c0 4.416-3.584 8-8 8s-8-3.584-8-8v-320c0-13.232 10.768-24 24-24h624c13.232 0 24 10.768 24 24v320c0 4.416-3.584 8-8 8zM648 480h-624c-13.232 0-24-10.768-24-24v-96c0-4.416 3.584-8 8-8h656c4.416 0 8 3.584 8 8v96c0 13.232-10.768 24-24 24zM656 368h-640v88c0 4.416 3.584 8 8 8h624c4.416 0 8-3.584 8-8v-88zM280 32c4.416 0 8 3.584 8 8v256c0 4.416-3.584 8-8 8h-208c-4.416 0-8-3.584-8-8v-256c0-4.416 3.584-8 8-8h208zM80 288h192v-240h-192v240zM360 240h240c4.416 0 8 3.584 8 8s-3.584 8-8 8h-240c-4.416 0-8-3.584-8-8s3.584-8 8-8zM360 160h240c4.416 0 8 3.584 8 8s-3.584 8-8 8h-240c-4.416 0-8-3.584-8-8s3.584-8 8-8zM360 80h240c4.416 0 8 3.584 8 8s-3.584 8-8 8h-240c-4.416 0-8-3.584-8-8s3.584-8 8-8zM48 416c0-8.837 7.163-16 16-16s16 7.163 16 16c0 8.837-7.163 16-16 16s-16-7.163-16-16zM112 416c0-8.837 7.163-16 16-16s16 7.163 16 16c0 8.837-7.163 16-16 16s-16-7.163-16-16zM176 416c0-8.837 7.163-16 16-16s16 7.163 16 16c0 8.837-7.163 16-16 16s-16-7.163-16-16z" horiz-adv-x="672"/>
<glyph unicode="" d="M544-8v304c0 4.416-3.584 8-8 8s-8-3.584-8-8v-304c0-4.416-3.584-8-8-8h-496c-4.416 0-8 3.584-8 8v304c0 4.416-3.584 8-8 8s-8-3.584-8-8v-304c0-13.232 10.768-24 24-24h496c13.232 0 24 10.768 24 24zM72 112c-4.416 0-8-3.584-8-8s3.584-8 8-8h24v-56c0-4.416 3.584-8 8-8s8 3.584 8 8v56h96v-56c0-4.416 3.584-8 8-8s8 3.584 8 8v56h96v-56c0-4.416 3.584-8 8-8s8 3.584 8 8v56h96v-56c0-4.416 3.584-8 8-8s8 3.584 8 8v56h24c4.416 0 8 3.584 8 8s-3.584 8-8 8h-24v80h24c4.416 0 8 3.584 8 8s-3.584 8-8 8h-24v72c0 4.416-3.584 8-8 8s-8-3.584-8-8v-72h-96v72c0 4.416-3.584 8-8 8s-8-3.584-8-8v-72h-96v72c0 4.416-3.584 8-8 8s-8-3.584-8-8v-72h-96v72c0 4.416-3.584 8-8 8s-8-3.584-8-8v-72h-24c-4.416 0-8-3.584-8-8s3.584-8 8-8h24v-80h-24zM432 192v-80h-96v80h96zM320 192v-80h-96v80h96zM112 192h96v-80h-96v80zM456 432h68c1.392 0 4 0 4-8v-72h-512v72c0 4.416 3.584 8 8 8h64c4.416 0 8 3.584 8 8s-3.584 8-8 8h-64c-13.232 0-24-10.768-24-24v-80c0-4.416 3.584-8 8-8h528c4.416 0 8 3.584 8 8v80c0 17.696-10.336 24-20 24h-68c-4.416 0-8-3.584-8-8s3.584-8 8-8zM360 432c4.416 0 8 3.584 8 8s-3.584 8-8 8h-176c-4.416 0-8-3.584-8-8s3.584-8 8-8h176zM144 408v64c0 4.416-3.584 8-8 8s-8-3.584-8-8v-64c0-4.416 3.584-8 8-8s8 3.584 8 8zM408 400c4.416 0 8 3.584 8 8v64c0 4.416-3.584 8-8 8s-8-3.584-8-8v-64c0-4.416 3.584-8 8-8z" horiz-adv-x="544"/>
<glyph unicode="" d="M8 432c-4.416 0-8-3.584-8-8v-272c0-13.232 10.768-24 24-24h448c13.232 0 24 10.768 24 24v272c0 4.416-3.584 8-8 8s-8-3.584-8-8v-272c0-4.416-3.584-8-8-8h-448c-4.416 0-8 3.584-8 8v272c0 4.416-3.584 8-8 8zM520 480h-544c-4.416 0-8-3.584-8-8s3.584-8 8-8h544c4.416 0 8 3.584 8 8s-3.584 8-8 8zM189.664 349.664c-2.928 2.928-7.6 3.136-10.784 0.496l-96-80c-3.392-2.832-3.856-7.872-1.024-11.28 2.832-3.392 7.856-3.856 11.28-1.024l90.384 75.328 90.832-90.832c1.552-1.568 3.6-2.352 5.648-2.352s4.096 0.784 5.664 2.336l114.336 114.352v-60.688c0-4.416 3.584-8 8-8s8 3.584 8 8v80c0 1.040-0.208 2.080-0.608 3.056-0.816 1.952-2.368 3.52-4.336 4.336-0.976 0.4-2.016 0.608-3.056 0.608h-80c-4.416 0-8-3.584-8-8s3.584-8 8-8h60.688l-108.688-108.688-90.336 90.352zM128.912-27.712c2.048-3.92 6.88-5.424 10.8-3.376l108.288 56.72 108.288-56.72c1.184-0.624 2.448-0.912 3.712-0.912 2.88 0 5.664 1.568 7.088 4.288 2.048 3.92 0.544 8.752-3.376 10.8l-110.288 57.76c1.568 1.456 2.576 3.504 2.576 5.824v41.328c0 4.416-3.584 8-8 8s-8-3.584-8-8v-41.328c0-2.304 1.008-4.352 2.576-5.808l-110.288-57.76c-3.92-2.064-5.424-6.896-3.376-10.816z" horiz-adv-x="496"/>
<glyph unicode="" d="M24-32h464c13.232 0 24 10.768 24 24v464c0 13.232-10.768 24-24 24h-464c-13.232 0-24-10.768-24-24v-464c0-13.232 10.768-24 24-24zM16 456c0 4.416 3.6 8 8 8h464c4.4 0 8-3.584 8-8v-464c0-4.416-3.6-8-8-8h-464c-4.4 0-8 3.584-8 8v464zM328 280c17.648 0 32 14.352 32 32s-14.352 32-32 32-32-14.352-32-32 14.352-32 32-32zM328 328c8.832 0 16-7.184 16-16s-7.168-16-16-16-16 7.184-16 16 7.168 16 16 16zM72 80h368c4.416 0 8 3.584 8 8v320c0 4.416-3.584 8-8 8h-368c-4.416 0-8-3.584-8-8v-320c0-4.416 3.584-8 8-8zM80 96v90.208c0.352 0.256 0.752 0.4 1.072 0.72l81.856 81.856c4.16 4.16 11.392 4.144 15.552 0l120.336-120.336c1.568-1.568 3.616-2.336 5.664-2.336 1.984 0 3.968 0.736 5.52 2.208l61.856 58.752c2.080 2.080 4.848 3.232 7.776 3.232 2.944 0 5.68-1.152 7.536-2.992l44.832-48.832c0 0 0.016 0 0.016-0.016v-62.464h-352.016zM432 400v-217.888l-33.296 36.256c-5.072 5.104-11.856 7.92-19.056 7.92-0.016 0-0.016 0-0.016 0-7.216 0-14-2.816-18.96-7.776l-56.064-53.248-114.816 114.832c-10.224 10.208-27.984 10.192-38.176 0l-71.616-71.632v191.536h352z"/>
<glyph unicode="" d="M24 32h416c13.232 0 24 10.768 24 24v400c0 13.232-10.768 24-24 24h-416c-13.232 0-24-10.768-24-24v-400c0-13.232 10.768-24 24-24zM16 456c0 4.416 3.6 8 8 8h416c4.4 0 8-3.584 8-8v-400c0-4.416-3.6-8-8-8h-416c-4.4 0-8 3.584-8 8v400zM288 304c17.648 0 32 14.352 32 32s-14.352 32-32 32-32-14.352-32-32 14.352-32 32-32zM288 352c8.832 0 16-7.184 16-16s-7.168-16-16-16-16 7.184-16 16 7.168 16 16 16zM56 112h352c4.416 0 8 3.584 8 8v304c0 4.416-3.584 8-8 8h-352c-4.416 0-8-3.584-8-8v-304c0-4.416 3.584-8 8-8zM64 128v74.208c0.352 0.256 0.752 0.4 1.072 0.72l81.856 81.856c4.16 4.16 11.392 4.144 15.552 0l120.336-120.336c1.568-1.568 3.616-2.336 5.664-2.336 1.984 0 3.968 0.736 5.52 2.208l61.856 58.752c2.080 2.080 4.848 3.232 7.776 3.232 2.944 0 5.68-1.152 7.424-2.848l28.944-32.944v-62.512h-336zM400 416v-201.296l-17.296 19.648c-5.072 5.104-11.856 7.92-19.056 7.92-0.016 0-0.016 0-0.016 0-7.216 0-14-2.816-18.96-7.776l-56.064-53.248-114.816 114.832c-10.224 10.208-27.984 10.192-38.176 0l-71.616-71.616v191.536h336zM72 14.672c-4.416 0-8-3.584-8-8v-14.672c0-13.232 10.768-24 24-24h416c13.232 0 24 10.768 24 24v416c0 13.232-10.768 24-24 24h-14.672c-4.416 0-8-3.584-8-8s3.584-8 8-8h14.672c4.4 0 8-3.584 8-8v-416c0-4.416-3.6-8-8-8h-416c-4.4 0-8 3.584-8 8v14.672c0 4.416-3.584 8-8 8z" horiz-adv-x="528"/>
<glyph unicode="" d="M120 480h-96c-13.904 0-24-10.096-24-24v-464c0-13.904 10.096-24 24-24h544c13.904 0 24 10.096 24 24v464c0 13.904-10.096 24-24 24h-448zM16-8v464c0 5.008 2.992 8 8 8h88v-480h-88c-5.008 0-8 2.992-8 8zM128-16v480h336v-480h-336zM576 456v-464c0-5.008-2.992-8-8-8h-88v480h88c5.008 0 8-2.992 8-8zM236.432 318.656c-2.448 1.632-5.616 1.792-8.224 0.4-2.576-1.392-4.208-4.096-4.208-7.056v-192c0-2.96 1.632-5.664 4.224-7.056 1.184-0.624 2.48-0.944 3.776-0.944 1.552 0 3.088 0.448 4.432 1.344l144 96c2.224 1.488 3.568 3.984 3.568 6.656s-1.344 5.168-3.568 6.656l-144 96zM240 134.944v162.112l121.584-81.056-121.584-81.056zM80 352h-32c-4.416 0-8-3.584-8-8s3.584-8 8-8h32c4.416 0 8 3.584 8 8s-3.584 8-8 8zM48 400h32c4.416 0 8 3.584 8 8s-3.584 8-8 8h-32c-4.416 0-8-3.584-8-8s3.584-8 8-8zM80 288h-32c-4.416 0-8-3.584-8-8s3.584-8 8-8h32c4.416 0 8 3.584 8 8s-3.584 8-8 8zM80 224h-32c-4.416 0-8-3.584-8-8s3.584-8 8-8h32c4.416 0 8 3.584 8 8s-3.584 8-8 8zM80 160h-32c-4.416 0-8-3.584-8-8s3.584-8 8-8h32c4.416 0 8 3.584 8 8s-3.584 8-8 8zM80 96h-32c-4.416 0-8-3.584-8-8s3.584-8 8-8h32c4.416 0 8 3.584 8 8s-3.584 8-8 8zM80 32h-32c-4.416 0-8-3.584-8-8s3.584-8 8-8h32c4.416 0 8 3.584 8 8s-3.584 8-8 8zM512 336h32c4.416 0 8 3.584 8 8s-3.584 8-8 8h-32c-4.416 0-8-3.584-8-8s3.584-8 8-8zM512 400h32c4.416 0 8 3.584 8 8s-3.584 8-8 8h-32c-4.416 0-8-3.584-8-8s3.584-8 8-8zM512 272h32c4.416 0 8 3.584 8 8s-3.584 8-8 8h-32c-4.416 0-8-3.584-8-8s3.584-8 8-8zM512 208h32c4.416 0 8 3.584 8 8s-3.584 8-8 8h-32c-4.416 0-8-3.584-8-8s3.584-8 8-8zM512 144h32c4.416 0 8 3.584 8 8s-3.584 8-8 8h-32c-4.416 0-8-3.584-8-8s3.584-8 8-8zM512 80h32c4.416 0 8 3.584 8 8s-3.584 8-8 8h-32c-4.416 0-8-3.584-8-8s3.584-8 8-8zM544 32h-32c-4.416 0-8-3.584-8-8s3.584-8 8-8h32c4.416 0 8 3.584 8 8s-3.584 8-8 8z" horiz-adv-x="592"/>
<glyph unicode="" d="M632 384h-120c-30.832 0-31.968 28.752-32 32v16c0 20.128-22.24 48-64 48h-159.504c-46.96 0-64-28.704-64-48v-15.904c-0.016-1.312-0.768-32.096-32.496-32.096h-120c-22.064 0-40-17.952-40-40v-288c0-22.048 17.936-40 40-40h96c4.416 0 8 3.584 8 8s-3.584 8-8 8h-96c-13.232 0-24 10.768-24 24v200h128c-10.304-24.64-16-51.664-16-80 0-114.688 93.312-208 208-208s208 93.312 208 208c0 28.336-5.744 55.36-16.048 80h128.048v-200c0-13.232-10.768-24-24-24h-112c-4.416 0-8-3.584-8-8s3.584-8 8-8h112c22.064 0 40 17.952 40 40v288c0 22.048-17.936 40-40 40zM336-16c-105.872 0-192 86.128-192 192s86.128 192 192 192 192-86.128 192-192-86.128-192-192-192zM524 272c-1.184 0-2.288-0.288-3.296-0.752-34.624 66.864-104.352 112.752-184.704 112.752s-150.080-45.888-184.704-112.752c-1.008 0.464-2.112 0.752-3.296 0.752h-132v72c0 13.232 10.768 24 24 24h120c37.888 0 48.304 31.328 48.496 48v16c0 12.864 12.784 32 48 32h159.504c33.504 0 48-21.184 48-32v-16c0-16.608 10.032-48 48-48h120c13.232 0 24-10.768 24-24v-72h-132zM152 400c4.416 0 8 3.584 8 8v16c0 13.232-10.768 24-24 24h-64c-13.232 0-24-10.768-24-24v-16c0-4.416 3.584-8 8-8s8 3.584 8 8v16c0 4.416 3.6 8 8 8h64c4.4 0 8-3.584 8-8v-16c0-4.416 3.584-8 8-8zM336 320c-79.408 0-144-64.608-144-144s64.592-144 144-144 144 64.608 144 144-64.592 144-144 144zM336 48c-70.576 0-128 57.424-128 128s57.424 128 128 128 128-57.424 128-128-57.424-128-128-128z" horiz-adv-x="672"/>
<glyph unicode="" d="M648 320h-40v56c0 13.232-10.768 24-24 24h-32c-4.416 0-8-3.584-8-8s3.584-8 8-8h32c4.4 0 8-3.584 8-8v-56h-64v152c0 4.416-3.584 8-8 8h-368c-4.416 0-8-3.584-8-8v-152h-64v56c0 4.416 3.6 8 8 8h32c4.416 0 8 3.584 8 8s-3.584 8-8 8h-32c-13.232 0-24-10.768-24-24v-56h-40c-13.232 0-24-10.768-24-24v-224c0-13.232 10.768-24 24-24h96c4.416 0 8 3.584 8 8s-3.584 8-8 8h-96c-4.4 0-8 3.584-8 8v56h640v-56c0-4.416-3.6-8-8-8h-96c-4.416 0-8-3.584-8-8s3.584-8 8-8h96c13.232 0 24 10.768 24 24v224c0 13.232-10.768 24-24 24zM160 464h352v-144h-352v144zM16 144v152c0 4.416 3.6 8 8 8h624c4.4 0 8-3.584 8-8v-152h-640zM520 112c-4.416 0-8-3.584-8-8v-120h-352v120c0 4.416-3.584 8-8 8s-8-3.584-8-8v-128c0-4.416 3.584-8 8-8h368c4.416 0 8 3.584 8 8v128c0 4.416-3.584 8-8 8zM592 192c0-8.837 7.163-16 16-16s16 7.163 16 16c0 8.837-7.163 16-16 16s-16-7.163-16-16zM528 192c0-8.837 7.163-16 16-16s16 7.163 16 16c0 8.837-7.163 16-16 16s-16-7.163-16-16z" horiz-adv-x="672"/>
<glyph unicode="" d="M664 208c-4.416 0-8-3.584-8-8v-208c0-4.416-3.584-8-8-8h-624c-4.416 0-8 3.584-8 8v208c0 4.416-3.584 8-8 8s-8-3.584-8-8v-208c0-13.232 10.768-24 24-24h624c13.232 0 24 10.768 24 24v208c0 4.416-3.584 8-8 8zM648 368h-624c-13.232 0-24-10.768-24-24v-96c0-4.416 3.584-8 8-8h216v-56c0-13.232 10.768-24 24-24h176c13.232 0 24 10.768 24 24v56h216c4.416 0 8 3.584 8 8v96c0 13.232-10.768 24-24 24zM432 184c0-4.416-3.584-8-8-8h-176c-4.416 0-8 3.584-8 8v56h192v-56zM656 256h-640v88c0 4.416 3.584 8 8 8h624c4.416 0 8-3.584 8-8v-88zM248 480c-13.232 0-24-10.768-24-24v-64c0-4.416 3.584-8 8-8s8 3.584 8 8v64c0 4.416 3.584 8 8 8h176c4.416 0 8-3.584 8-8v-64c0-4.416 3.584-8 8-8s8 3.584 8 8v64c0 13.232-10.768 24-24 24h-176z" horiz-adv-x="672"/>
<glyph unicode="" d="M600 192c-4.416 0-8-3.584-8-8v-192c0-4.416-3.584-8-8-8h-560c-4.416 0-8 3.584-8 8v192c0 4.416-3.584 8-8 8s-8-3.584-8-8v-192c0-13.232 10.768-24 24-24h560c13.232 0 24 10.768 24 24v192c0 4.416-3.584 8-8 8zM408 400c4.416 0 8 3.584 8 8v48c0 13.232-10.768 24-24 24h-176c-13.232 0-24-10.768-24-24v-48c0-4.416 3.584-8 8-8s8 3.584 8 8v48c0 4.416 3.584 8 8 8h176c4.416 0 8-3.584 8-8v-48c0-4.416 3.584-8 8-8zM584 368h-560c-13.232 0-24-10.768-24-24v-79.328c0-44.448 151.296-104 306-104 152.688 0 302 59.552 302 104v79.328c0 13.232-10.768 24-24 24zM592 264.672c0-28.224-135.312-88-286-88-152.8 0-290 59.76-290 88v79.328c0 4.416 3.584 8 8 8h560c4.416 0 8-3.584 8-8v-79.328zM306 112c15.088 0 30.768 0.624 46.624 1.856 4.4 0.336 7.696 4.192 7.344 8.608-0.336 4.4-4.032 7.776-8.608 7.344-32.224-2.512-62.544-2.4-94.704 0.32-4.224 0.432-8.272-2.896-8.64-7.296s2.896-8.272 7.296-8.64c17.216-1.456 34.272-2.192 50.688-2.192z" horiz-adv-x="608"/>
<glyph unicode="" d="M520.144 360c4.416 0 8 3.584 8 8v26.64c0 14.448-11.76 26.208-26.208 26.208h-42.992l-9.808 28.944c-1.376 4.080-5.76 6.352-9.904 5.088l-232.848-70.784c-4.224-1.296-6.608-5.76-5.328-9.984 1.056-3.456 4.224-5.664 7.664-5.664 0.768 0 1.552 0.112 2.336 0.336l225.424 68.544 21.488-63.44c1.424-4.192 6-6.464 10.144-5.008 4.192 1.408 6.432 5.968 5.008 10.144l-8.752 25.84h37.584c5.632 0 10.208-4.576 10.208-10.208v-26.656c-0.016-4.416 3.568-8 7.984-8zM584 240c-4.416 0-8-3.584-8-8s3.584-8 8-8c5.616 0 8-2.384 8-8v-96c0-5.616-2.384-8-8-8h-128c-5.616 0-8 2.384-8 8v80c0 5.616 2.384 8 8 8h96c4.416 0 8 3.584 8 8v96c0 14.576-9.424 24-24 24h-488c-19.728 0-32 12.272-32 32s12.272 32 32 32h81.216l-48.416-15.968c-4.192-1.376-6.48-5.904-5.104-10.096 1.104-3.36 4.24-5.488 7.6-5.488 0.832 0 1.664 0.128 2.512 0.4l289.904 95.568c4.192 1.392 6.48 5.904 5.088 10.112-1.376 4.192-5.904 6.48-10.112 5.088l-193.6-63.84c-0.368 0.064-0.704 0.224-1.088 0.224h-128c-28.704 0-48-19.296-48-48v-352c0-28.704 19.296-48 48-48h488c14.576 0 24 9.424 24 24v80c0 4.416-3.584 8-8 8s-8-3.584-8-8v-80c0-5.616-2.384-8-8-8h-488c-19.728 0-32 12.272-32 32v315.008c8.208-6.928 19.072-11.008 32-11.008h488c5.616 0 8-2.384 8-8v-88h-88c-14.576 0-24-9.424-24-24v-80c0-14.576 9.424-24 24-24h128c14.576 0 24 9.424 24 24v96c0 14.576-9.424 24-24 24zM496 160c0-8.837 7.163-16 16-16s16 7.163 16 16c0 8.837-7.163 16-16 16s-16-7.163-16-16z" horiz-adv-x="608"/>
<glyph unicode="" d="M24 208c-4.416 0-8-3.584-8-8v-192c0-13.232 10.768-24 24-24h160c4.416 0 8 3.584 8 8s-3.584 8-8 8h-160c-4.416 0-8 3.584-8 8v192c0 4.416-3.584 8-8 8zM648 208c-4.416 0-8-3.584-8-8v-192c0-4.416-3.584-8-8-8h-336c-4.416 0-8-3.584-8-8s3.584-8 8-8h336c13.232 0 24 10.768 24 24v192c0 4.416-3.584 8-8 8zM288 456c0-4.416 3.584-8 8-8h336c4.416 0 8-3.584 8-8v-143.328c0-4.416 3.584-8 8-8s8 3.584 8 8v143.328c0 13.232-10.768 24-24 24h-336c-4.416 0-8-3.584-8-8zM40 464c-13.232 0-24-10.768-24-24v-143.328c0-4.416 3.584-8 8-8s8 3.584 8 8v143.328c0 4.416 3.584 8 8 8h160c4.416 0 8 3.584 8 8s-3.584 8-8 8h-160zM664 256.672h-326.4c6.352 2.816 11.84 6.096 15.744 10 24.176 24.176 24.176 63.504 0 87.68-23.424 23.424-64.256 23.424-87.68 0-3.76-3.76-6.912-9.008-9.664-15.040v132.688c0 4.416-3.584 8-8 8s-8-3.584-8-8v-211.6c-27.248 11.232-75.216 34.304-85.056 54.192-6.4 12.928-7.376 27.552-2.768 41.216 4.624 13.664 14.272 24.688 27.184 31.088 3.968 1.968 5.584 6.752 3.632 10.72-1.984 3.968-6.752 5.6-10.72 3.632-16.752-8.288-29.264-22.608-35.248-40.32s-4.704-36.688 3.584-53.424c9.68-19.552 42.080-38.256 68.4-50.832h-201.008c-4.416 0-8-3.584-8-8s3.584-8 8-8h149.536c-6.192-2.784-11.552-6-15.376-9.824-24.176-24.176-24.176-63.504 0-87.68 11.712-11.712 27.28-18.16 43.84-18.16s32.128 6.448 43.84 18.16c3.968 3.968 7.296 9.584 10.16 16.080v-183.248c0-4.416 3.584-8 8-8s8 3.584 8 8v260.88c27.328-11.296 74.768-34.208 84.56-53.984 6.4-12.928 7.376-27.552 2.768-41.216-4.624-13.664-14.272-24.688-27.184-31.088-3.968-1.968-5.584-6.752-3.632-10.72 1.392-2.816 4.24-4.448 7.184-4.448 1.184 0 2.4 0.272 3.536 0.832 16.752 8.288 29.264 22.608 35.248 40.32s4.704 36.672-3.584 53.424c-9.632 19.456-41.776 38.080-68.032 50.672h377.136c4.416 0 8 3.584 8 8s-3.584 8-8 8zM276.976 343.024c8.688 8.688 20.24 13.472 32.528 13.472s23.84-4.784 32.528-13.472c17.936-17.936 17.936-47.12 0-65.056-13.664-13.664-60.64-19.232-85.872-20.8 1.792 29.824 8.352 73.392 20.816 85.856zM218.528 154.48c-17.376-17.376-47.68-17.376-65.056 0-17.936 17.936-17.936 47.12 0 65.056 13.664 13.664 60.64 19.232 85.872 20.8-1.792-29.824-8.352-73.392-20.816-85.856z" horiz-adv-x="672"/>
<glyph unicode="" d="M416 312v-320c0-2.816 0.576-5.488 1.472-8h-50.944c0.896 2.512 1.472 5.184 1.472 8v464c0 13.232-10.768 24-24 24h-112c-13.232 0-24-10.768-24-24v-464c0-2.816 0.576-5.488 1.472-8h-50.944c0.896 2.512 1.472 5.184 1.472 8v176c0 13.232-10.768 24-24 24h-112c-13.232 0-24-10.768-24-24v-176c0-13.232 10.768-24 24-24h528c13.232 0 24 10.768 24 24v320c0 13.232-10.768 24-24 24h-112c-13.232 0-24-10.768-24-24zM80-16h-56c-4.4 0-8 3.584-8 8v176c0 4.416 3.6 8 8 8h112c4.4 0 8-3.584 8-8v-176c0-4.416-3.6-8-8-8h-56zM232-16c-4.4 0-8 3.584-8 8v464c0 4.416 3.6 8 8 8h112c4.4 0 8-3.584 8-8v-464c0-4.416-3.6-8-8-8h-112zM560 312v-320c0-4.416-3.6-8-8-8h-112c-4.4 0-8 3.584-8 8v320c0 4.416 3.6 8 8 8h112c4.4 0 8-3.584 8-8z" horiz-adv-x="576"/>
<glyph unicode="" d="M456 304c4.416 0 8 3.584 8 8s-3.584 8-8 8h-120v120c0 4.416-3.584 8-8 8s-8-3.584-8-8v-120h-144v120c0 4.416-3.584 8-8 8s-8-3.584-8-8v-120h-120c-4.416 0-8-3.584-8-8s3.584-8 8-8h120v-144h-120c-4.416 0-8-3.584-8-8s3.584-8 8-8h120v-136c0-4.416 3.584-8 8-8s8 3.584 8 8v136h144v-136c0-4.416 3.584-8 8-8s8 3.584 8 8v136h120c4.416 0 8 3.584 8 8s-3.584 8-8 8h-120v144h120zM320 160h-144v144h144v-144zM496-8v464c0 13.232-10.768 24-24 24h-448c-13.232 0-24-10.768-24-24v-464c0-13.232 10.768-24 24-24h448c13.232 0 24 10.768 24 24zM16-8v464c0 4.416 3.6 8 8 8h448c4.4 0 8-3.584 8-8v-464c0-4.416-3.6-8-8-8h-448c-4.4 0-8 3.584-8 8z" horiz-adv-x="496"/>
<glyph unicode="" d="M512-8v464c0 13.232-10.768 24-24 24h-464c-13.232 0-24-10.768-24-24v-144c0-4.416 3.584-8 8-8s8 3.584 8 8v144c0 4.416 3.6 8 8 8h464c4.4 0 8-3.584 8-8v-464c0-4.416-3.6-8-8-8h-144c-4.416 0-8-3.584-8-8s3.584-8 8-8h144c13.232 0 24 10.768 24 24zM24 272c-13.232 0-24-10.768-24-24v-256c0-13.232 10.768-24 24-24h256c13.232 0 24 10.768 24 24v268.688l112 112v-108.688c0-4.416 3.584-8 8-8s8 3.584 8 8v128c0 4.416-3.584 8-8 8h-128c-4.416 0-8-3.584-8-8s3.584-8 8-8h108.672l-112-112h-268.672zM288-8c0-4.416-3.6-8-8-8h-256c-4.4 0-8 3.584-8 8v256c0 4.416 3.6 8 8 8h264v-264z"/>
<glyph unicode="" d="M136 480h-112c-13.232 0-24-10.768-24-24v-96c0-4.416 3.584-8 8-8s8 3.584 8 8v96c0 4.416 3.6 8 8 8h112c4.416 0 8 3.584 8 8s-3.584 8-8 8zM648 480h-112c-4.416 0-8-3.584-8-8s3.584-8 8-8h112c4.4 0 8-3.584 8-8v-96c0-4.416 3.584-8 8-8s8 3.584 8 8v96c0 13.232-10.768 24-24 24zM664 96c-4.416 0-8-3.584-8-8v-96c0-4.416-3.6-8-8-8h-112c-4.416 0-8-3.584-8-8s3.584-8 8-8h112c13.232 0 24 10.768 24 24v96c0 4.416-3.584 8-8 8zM8 96c-4.416 0-8-3.584-8-8v-96c0-13.232 10.768-24 24-24h112c4.416 0 8 3.584 8 8s-3.584 8-8 8h-112c-4.4 0-8 3.584-8 8v96c0 4.416-3.584 8-8 8zM376 176c4.416 0 8 3.584 8 8v80c0 4.416-3.584 8-8 8h-80c-4.416 0-8-3.584-8-8v-80c0-4.416 3.584-8 8-8h80zM304 256h64v-64h-64v64z" horiz-adv-x="672"/>
<glyph unicode="" d="M24-32h464c13.232 0 24 10.768 24 24v464c0 13.232-10.768 24-24 24h-464c-13.232 0-24-10.768-24-24v-464c0-13.232 10.768-24 24-24zM16 456c0 4.416 3.6 8 8 8h464c4.4 0 8-3.584 8-8v-464c0-4.416-3.6-8-8-8h-464c-4.4 0-8 3.584-8 8v464zM64 24.336c0.768 0 1.536 0.112 2.288 0.336l160 47.664c1.296 0.384 2.464 1.088 3.408 2.032l161.44 163.28c0.368 0.384 0.56 0.848 0.832 1.28l58.528 58.528c9.712 9.712 9.712 25.52 0 35.248l-83.776 83.744c-9.712 9.712-25.52 9.728-35.232 0l-59.824-59.824c-0.384-0.384-0.576-0.864-0.864-1.296l-161.888-161.904c-0.896-0.896-1.568-1.984-1.952-3.184l-50.56-155.44c-0.928-2.832-0.192-5.936 1.872-8.064 1.52-1.552 3.6-2.4 5.728-2.4zM277.744 339.664l16.64-16.64-136.368-137.008-27.632 6.272 147.36 147.376zM168 173.36l137.712 138.336 38.944-38.944-139.92-136.752h-36.736v37.36zM374.16 243.248l-147.936-149.632-9.216 31.984 138.944 135.824 18.208-18.176zM119.888 178.256l32.112-7.296v-42.96c0-4.416 3.584-8 8-8h41.984l10.128-35.2-135.792-40.448 43.568 133.904zM342.8 405.136c3.488 3.472 9.152 3.456 12.608 0l83.76-83.76c3.488-3.472 3.488-9.136 0-12.624l-53.952-53.952-96.368 96.368 53.952 53.968z"/>
<glyph unicode="" d="M496 480h-464c-13.152 0-32-18.848-32-32v-448c0-13.152 18.848-32 32-32h464c13.152 0 32 18.848 32 32v448c0 13.152-18.848 32-32 32zM512 0c-0.096-4.544-11.456-15.904-16-16h-464c-4.544 0.096-15.904 11.456-16 16v448c0.096 4.544 11.456 15.904 16 16h464c4.544-0.096 15.904-11.456 16-16v-448zM264 392c-17.648 0-32-14.352-32-32s14.352-32 32-32 32 14.352 32 32-14.352 32-32 32zM264 344c-8.816 0-16 7.184-16 16s7.184 16 16 16 16-7.184 16-16-7.184-16-16-16zM392 136c-17.648 0-32-14.352-32-32s14.352-32 32-32 32 14.352 32 32-14.352 32-32 32zM392 88c-8.816 0-16 7.184-16 16s7.184 16 16 16 16-7.184 16-16-7.184-16-16-16zM136 216c-17.648 0-32-14.352-32-32s14.352-32 32-32 32 14.352 32 32-14.352 32-32 32zM136 168c-8.816 0-16 7.184-16 16s7.184 16 16 16 16-7.184 16-16-7.184-16-16-16zM136 240c4.416 0 8 3.584 8 8v144c0 4.416-3.584 8-8 8s-8-3.584-8-8v-144c0-4.416 3.584-8 8-8zM136 128c-4.416 0-8-3.584-8-8v-48c0-4.416 3.584-8 8-8s8 3.584 8 8v48c0 4.416-3.584 8-8 8zM264 304c-4.416 0-8-3.584-8-8v-224c0-4.416 3.584-8 8-8s8 3.584 8 8v224c0 4.416-3.584 8-8 8zM392 160c4.416 0 8 3.584 8 8v224c0 4.416-3.584 8-8 8s-8-3.584-8-8v-224c0-4.416 3.584-8 8-8z" horiz-adv-x="528"/>
<glyph unicode="" d="M24 336c-4.416 0-8-3.584-8-8v-335.136c0-10.64 5.056-16.624 9.312-19.76 5.088-3.776 11.072-5.104 16.416-5.104 3.216 0 6.192 0.48 8.608 1.232 46.864 14.32 149.52 119.712 175.568 147.040 25.392-27.488 124.88-132.72 171.744-147.040 6.464-1.984 16.88-2.16 25.024 3.888 4.272 3.136 9.328 9.104 9.328 19.744v335.136c0 4.416-3.584 8-8 8s-8-3.584-8-8v-335.136c0-4.32-1.616-6-2.832-6.896-2.848-2.112-7.744-2.4-10.832-1.456-48.64 14.864-169.2 147.52-170.4 148.848-1.504 1.664-3.632 2.624-5.872 2.64-2.032 0.016-4.368-0.896-5.904-2.544-1.248-1.328-125.792-134.048-174.496-148.944-3.072-0.944-7.984-0.656-10.832 1.456-1.216 0.896-2.832 2.592-2.832 6.896v335.136c0 4.416-3.584 8-8 8zM448 376v80c0 13.232-10.768 24-24 24h-400c-13.232 0-24-10.768-24-24v-80c0-4.416 3.584-8 8-8h432c4.416 0 8 3.584 8 8zM432 384h-416v72c0 4.416 3.584 8 8 8h400c4.416 0 8-3.584 8-8v-72z" horiz-adv-x="448"/>
<glyph unicode="" d="M336.336 472c0 4.416-3.584 8-8 8h-320.672c-4.416 0-8-3.584-8-8s3.568-8 8-8h320.688c4.416 0 7.984 3.584 7.984 8zM320 382.208v57.792c0 4.416-3.584 8-8 8h-286.688c-4.416 0-8-3.584-8-8v-57.792c0-79.616 60.928-133.6 96.224-158.176-40.464-27.872-97.536-80.912-97.536-158.24v-57.792c0-4.416 3.584-8 8-8h288c4.416 0 8 3.584 8 8v57.328c0 79.392-61.808 133.84-97.52 158.656 40.464 27.872 97.52 80.896 97.52 158.224zM168 92.96l76.96-76.96h-153.92l76.96 76.96zM203.712 230.752c-2.32-1.456-3.712-4.016-3.712-6.752s1.392-5.296 3.712-6.752c30.16-19.12 100.288-72.208 100.288-151.92v-49.328h-36.608c-0.144 0.176-0.208 0.4-0.368 0.56l-91.024 91.024v12.416c0 4.416-3.584 8-8 8s-8-3.584-8-8v-12.416l-91.024-91.024c-0.16-0.16-0.224-0.384-0.368-0.56h-36.608v49.792c0 76.432 62.832 127.696 100.288 151.44 2.32 1.472 3.712 4.032 3.712 6.768s-1.392 5.296-3.712 6.752c-29.76 18.88-100.288 71.408-100.288 151.456v49.792h272v-49.792c0-76.448-62.832-127.696-100.288-151.456zM248.656 336.448h-157.024c-2.864 0-5.52-1.536-6.944-4.016-1.424-2.496-1.408-5.552 0.032-8.032 18.992-32.336 46.72-52.128 76.080-73.104l2.544-1.808c1.392-0.992 3.008-1.488 4.656-1.488s3.264 0.496 4.656 1.488c4.192 2.992 8.416 5.936 12.64 8.88 26.224 18.304 53.344 37.216 70.256 66.032 1.456 2.464 1.472 5.536 0.048 8.016-1.44 2.496-4.080 4.032-6.944 4.032zM176.128 271.504c-2.704-1.888-5.408-3.776-8.112-5.68-24.080 17.2-45.36 32.672-61.536 54.64h127.088c-15.056-19.392-35.744-33.824-57.44-48.96zM7.664-32h320.688c4.416 0 8 3.584 8 8s-3.584 8-8 8h-320.688c-4.416 0-8-3.584-8-8s3.568-8 8-8zM168 176c-4.416 0-8-3.584-8-8v-16c0-4.416 3.584-8 8-8s8 3.584 8 8v16c0 4.416-3.584 8-8 8zM168 224c-4.416 0-8-3.584-8-8v-16c0-4.416 3.584-8 8-8s8 3.584 8 8v16c0 4.416-3.584 8-8 8z" horiz-adv-x="336"/>
<glyph unicode="" d="M224 480c-88.224 0-160-71.776-160-160v-48h-24c-22.048 0-40-17.952-40-40v-224c0-22.048 17.952-40 40-40h368c22.048 0 40 17.952 40 40v224c0 22.048-17.952 40-40 40h-24v48c0 88.224-71.776 160-160 160zM80 320c0 79.392 64.608 144 144 144s144-64.608 144-144v-48h-48v48c0 52.944-43.056 96-96 96s-96-43.056-96-96v-48h-48v48zM304 272h-160v48c0 44.112 35.888 80 80 80s80-35.888 80-80v-48zM196.688 144l-80-80h-73.376l80 80h73.376zM292.688 144l-80-80h-73.376l80 80h73.376zM388.688 144l-80-80h-73.376l80 80h73.376zM432 144v-80h-100.688l80 80h20.688zM20.688 64h-4.688v80h84.688l-80-80zM408-16h-368c-13.232 0-24 10.768-24 24v40h416v-40c0-13.232-10.768-24-24-24zM432 232v-72h-416v72c0 13.232 10.768 24 24 24h368c13.232 0 24-10.768 24-24z" horiz-adv-x="448"/>
<glyph unicode="" d="M631.968 480c-4.432 0-7.968-3.584-7.968-8v-496c0-4.416 3.536-8 7.968-8s8 3.584 8 8v496c0 4.416-3.584 8-8 8zM603.472 460.736c-2.72 1.328-6.016 0.992-8.416-0.88l-9.040-7.12c-47.648-37.68-127.344-100.736-290.016-100.736h-221.904c-23.216 0-42.096-19.2-42.096-42.784v-171.424c0-23.040 18.88-41.792 42.096-41.792h54.304c1.408-18 8.032-60.704 39.264-92.176 23.584-23.776 56-35.824 96.336-35.824 4.416 0 8 3.584 8 8s-3.584 8-8 8c-35.872 0-64.416 10.432-84.896 31.008-26.672 26.816-33.072 64.384-34.608 80.992h47.92c1.36-10.912 5.76-30.096 20.384-44.832 12.624-12.72 29.856-19.168 51.2-19.168 4.416 0 8 3.584 8 8s-3.584 8-8 8c-16.88 0-30.256 4.832-39.744 14.336-10.512 10.544-14.304 24.736-15.696 33.664h86.336c163.456 0 243.792-63.408 291.792-101.296l8.352-6.576c1.424-1.12 3.168-1.68 4.912-1.68 1.2 0 2.4 0.272 3.504 0.816 2.752 1.344 4.496 4.128 4.496 7.184v459.104c0.016 3.056-1.728 5.84-4.48 7.184zM48 137.792v171.424c0 14.768 11.696 26.784 26.096 26.784h53.904v-224h-53.904c-14.64 0-26.096 11.328-26.096 25.792zM592 10.928c-50.144 39.456-133.248 101.072-297.088 101.072h-92.752c-0.752 0.24-1.52 0.48-2.368 0.496-0.016 0-0.016 0-0.032 0-0.864 0-1.68-0.24-2.464-0.496h-53.296v224h152c163.792 0 246.304 61.824 296 101.056v-426.128zM8 130.288c4.416 0 8 3.584 8 8v171.424c0 4.416-3.584 8-8 8s-8-3.568-8-8v-171.424c0-4.416 3.584-8 8-8z" horiz-adv-x="640"/>
<glyph unicode="" d="M216 480c-142.992 0-211.328-80.752-214.176-84.192-1.168-1.44-1.824-3.232-1.824-5.104v-160.864c0-136.064 125.216-216.848 179.040-245.264 3.904-2.064 8.736-0.56 10.816 3.344 2.064 3.904 0.56 8.752-3.344 10.816-63.68 33.616-170.512 108.336-170.512 231.12v157.808c11.232 12.080 74.112 73.552 192 76.24v-487.904c0-4.416 3.584-8 8-8 2.384 0 4.528 1.040 6 2.704 26.192 11.264 210 96.24 210 261.296v160c0 1.872-0.656 3.68-1.84 5.104-2.368 2.864-59.424 70-178.256 81.984-4.4 0.304-8.336-2.768-8.768-7.152-0.448-4.4 2.768-8.32 7.152-8.768 100.592-10.144 155.248-63.12 165.712-74.24v-156.928c0-143.232-149.808-223.184-192-242.864v482.864c0 4.416-3.584 8-8 8z" horiz-adv-x="432"/>
<glyph unicode="" d="M408 464c4.416 0 8 3.584 8 8s-3.584 8-8 8h-272c-4.416 0-8-3.584-8-8s3.584-8 8-8h272zM408 448h-304c-52.528 0-77.008-18.656-88.304-34.304-13.824-19.2-16.416-44.848-7.296-72.224 14.112-42.336 61.536-93.2 90.688-115.792 1.472-1.136 3.2-1.68 4.912-1.68 2.384 0 4.752 1.056 6.336 3.104 2.704 3.488 2.064 8.512-1.424 11.232-26.784 20.736-72.4 69.472-85.312 108.208-7.472 22.352-5.664 42.88 5.088 57.792 13.040 18.096 39.072 27.664 75.312 27.664h24v-152c0-107.616 106.768-169.616 128.576-181.152-0.336-0.896-0.576-1.84-0.576-2.848v-40c0-4.416 3.584-8 8-8s8 3.584 8 8v40c0 0.928-0.24 1.792-0.528 2.624 24.224 11.392 144.528 73.376 144.528 181.376v152h24c36.24 0 62.272-9.568 75.312-27.664 10.752-14.912 12.56-35.44 5.088-57.808-10.080-30.256-60.304-88.848-85.312-108.208-3.488-2.704-4.128-7.728-1.424-11.232 1.584-2.032 3.952-3.088 6.336-3.088 1.712 0 3.44 0.544 4.912 1.664 27.712 21.472 79.376 81.904 90.688 115.792 9.12 27.376 6.528 53.024-7.296 72.224-11.296 15.664-35.776 34.32-88.304 34.32h-32zM400 280c0-97.488-114.432-156.864-135.776-167.088-19.648 10.64-120.224 69.872-120.224 167.088v152h256v-152zM176 32c-18.256 0-32-13.76-32-32v-24c0-4.416 3.584-8 8-8h224c4.416 0 8 3.584 8 8v22.8c0 18.608-14.064 33.2-32 33.2h-176zM368-1.2v-14.8h-208v16c0 9.424 6.576 16 16 16h176c9.12 0 16-7.392 16-17.2z" horiz-adv-x="544"/>
<glyph unicode="" d="M216 464h-176c-4.416 0-8-3.584-8-8v-240c0-4.416 3.584-8 8-8h176.032c4.016 0 23.968-1.184 23.968-24 0-4.416 3.584-8 8-8s8 3.584 8 8v240.256c-0.432 13.744-9.344 39.744-40 39.744zM240 216.704c-8.016 5.392-17.408 7.296-24 7.296h-168v224h168c22.336 0 23.904-21.808 24-24v-207.296zM421.264 144h-221.472c0.096-0.016-11.248-0.144-18.24 6.704-4.016 3.952-6.064 9.76-6.064 17.296 0 4.416-3.584 8-8 8s-8-3.584-8-8c0-12.064 3.696-21.76 11.008-28.848 10.992-10.64 26.368-11.152 29.104-11.152 0.24 0 221.664 0 221.664 0 6.224 0 11.504 2.512 14.896 7.088 4.496 6.064 4.4 13.808 2.96 18.592-9.008 29.648-56.656 94.128-70.064 111.936 12.912 19.856 61.040 95.040 70.064 124.688 1.456 4.784 1.552 12.512-2.96 18.592-3.392 4.592-8.672 7.104-14.896 7.104h-140.592c-4.416 0-8-3.584-8-8s3.584-8 8-8h140.592c1.584 0 1.904-0.448 2.032-0.624 0.752-0.992 0.88-3.152 0.496-4.4-9.536-31.376-70.592-124.352-71.216-125.296-1.872-2.848-1.728-6.56 0.336-9.264 0.608-0.8 61.424-80.288 70.88-111.376 0.368-1.264 0.256-3.408-0.496-4.416-0.128-0.176-0.448-0.624-2.032-0.624zM16-24v496c0 4.416-3.584 8-8 8s-8-3.584-8-8v-496c0-4.416 3.584-8 8-8s8 3.584 8 8z" horiz-adv-x="448"/>
<glyph unicode="" d="M147.824-30.832c0.144-0.096 0.336-0.048 0.48-0.144 1.168-0.592 2.384-1.024 3.696-1.024 0.704 0 1.408 0.096 2.112 0.288l173.888 47.456 173.888-47.456c0.704-0.192 1.408-0.288 2.112-0.288 1.312 0 2.528 0.432 3.68 1.040 0.16 0.080 0.336 0.048 0.48 0.144l144 88c3.056 1.872 4.496 5.568 3.52 9.008l-79.744 280c-0.656 2.352-2.368 4.272-4.64 5.216-2.272 0.912-4.816 0.768-6.976-0.416l-79.392-44.544c-3.84-2.16-5.216-7.040-3.056-10.896 2.16-3.872 7.024-5.232 10.912-3.056l70.544 39.6 75.312-264.416-128.24-78.384-30.464 243.696c-0.544 4.4-4.688 7.456-8.944 6.944-4.368-0.544-7.488-4.544-6.944-8.928l30.512-244.144-158.56 43.28v43.68c0 4.416-3.584 8-8 8s-8-3.584-8-8v-43.68l-158.576-43.28 30.512 244.144c0.544 4.384-2.56 8.384-6.944 8.928-4.352 0.512-8.384-2.544-8.944-6.944l-30.448-243.696-128.24 78.368 75.312 264.4 70.544-39.6c3.872-2.144 8.736-0.784 10.912 3.056 2.16 3.856 0.784 8.72-3.056 10.896l-79.408 44.56c-2.128 1.2-4.672 1.36-6.96 0.416-2.272-0.944-3.984-2.848-4.64-5.216l-79.744-280c-0.992-3.456 0.448-7.136 3.52-9.008l143.984-88zM322.576 106.112c1.536-1.408 3.472-2.112 5.424-2.112 1.92 0 3.84 0.688 5.376 2.064 5.328 4.848 130.624 119.824 130.624 237.936 0 76.272-59.728 136-136 136s-136-59.728-136-136c0-116.064 125.248-232.96 130.576-237.888zM328 464c68.4 0 120-51.584 120-120 0-97.552-95.888-197.392-119.952-220.912-24.016 23.792-120.048 124.944-120.048 220.912 0 68.416 51.6 120 120 120zM400 344c0 39.696-32.304 72-72 72s-72-32.304-72-72 32.304-72 72-72 72 32.304 72 72zM328 288c-30.88 0-56 25.12-56 56s25.12 56 56 56 56-25.12 56-56-25.12-56-56-56z" horiz-adv-x="656"/>
<glyph unicode="" d="M320.672 417.488c0 31.12-24.944 62.512-80.672 62.512-49.072 0-82.064-25.12-82.064-62.512 0-21.824 8.832-31.776 14.672-38.368 3.088-3.472 4.336-5.040 4.336-6.608 0-2.592 0-4.16-8.928-4.512h-97.568c-37.52 0-70.448-29.904-70.448-64v-59.712c0.608-15.104 9.136-24.496 22.272-24.496 7.472 0 13.008 4.272 18.384 8.416 7.2 5.52 15.344 11.792 31.344 11.792 27.136 0 56-22.432 56-64 0-42.064-29.248-71.392-55.504-71.392-15.84 0-24.128 6.864-31.456 12.912-5.488 4.544-11.152 9.248-18.784 9.248-13.12 0-21.664-9.392-22.272-24.816v-65.632c0.016-35.76 33.6-68.32 70.464-68.32h98.064c14.848 0.608 24.432 9.36 24.432 22.336 0 7.792-4.432 12.8-8.352 17.216-5.248 5.904-10.656 12-10.656 27.744 0 28.256 25.664 46.512 65.36 46.512 39.712 0 65.376-18.256 65.376-46.512 0-15.744-5.424-21.84-10.656-27.744-3.92-4.416-8.368-9.424-8.368-17.216 0-13.152 9.36-21.696 24.768-22.32l63.056-0.016c34.432 0 58.496 26.832 58.496 65.248v74.4c0.416 1.952 5.344 9.408 12.864 9.408 1.536 0 3.088-1.264 6.544-4.336 6.56-5.872 16.496-14.752 38.288-14.752 34.944 0.016 70.336 26.8 70.336 78.032 0 55.264-32.144 80-64 80-21.504 0-33.92-9.824-42.144-16.32-3.648-2.88-7.072-5.6-9.024-5.6-7.536 0-12.464 7.488-12.832 9.136-0.016 0.128-0.016 0.256-0.032 0.384v57.328c0 38.864-24.608 67.072-58.496 67.072h-62.736c-0.208 0.016-0.416 0.032-0.64 0.048-8.448 0.32-8.448 1.872-8.448 4.464 0 1.568 1.248 3.12 4.336 6.608 5.84 6.576 14.688 16.544 14.688 38.368zM294.016 389.728c-3.92-4.416-8.368-9.44-8.368-17.232 0-8.8 4.016-19.392 23.536-20.432 0.368-0.048 0.736-0.064 1.12-0.064h63.168c27.904 0 42.528-25.696 42.528-51.072v-58.128c0-0.576-0.112-1.136 0-1.68 1.472-9.776 13.472-23.024 28.832-23.024 7.52 0 13.056 4.384 18.96 9.040 7.616 6.032 16.272 12.864 32.208 12.864 29.152 0 48-25.12 48-64 0-42.624-28.176-62.016-54.336-62.016-15.664 0-21.744 5.424-27.632 10.672-4.416 3.936-9.424 8.4-17.2 8.4-15.36 0-27.376-13.264-28.832-23.040-0.112-0.544 0-1.104 0-1.68v-75.104c0-24.496-13.168-49.232-42.528-49.232h-62.736c-9.088 0.368-9.088 4.56-9.088 6.336 0 1.552 1.248 3.12 4.336 6.608 5.84 6.592 14.688 16.544 14.688 38.368 0 31.12-25.152 62.512-81.376 62.512-48.656 0-81.36-25.12-81.36-62.512 0-21.824 8.832-31.776 14.688-38.368 3.072-3.472 4.336-5.040 4.336-6.608 0-1.792 0-5.984-8.768-6.336h-97.744c-27.472 0-54.448 25.92-54.448 52.32v65.312c0.352 9.136 4.496 9.136 6.272 9.136 1.856 0 5.12-2.704 8.592-5.568 7.968-6.608 20.048-16.592 41.648-16.592 34.512 0 71.488 35.12 71.488 87.392 0 51.968-37.088 80-72 80-21.44 0-33.264-9.088-41.088-15.12-3.552-2.736-6.624-5.088-8.64-5.088-1.76 0-5.904 0-6.272 8.816v59.392c0 28.288 28.704 48 54.448 48h97.84c0.256 0 0.496 0.016 0.752 0.032v0c19.76 0.736 23.904 11.552 23.904 20.48 0 7.792-4.432 12.8-8.352 17.216-5.248 5.904-10.656 12-10.656 27.76 0 27.824 26.544 46.512 66.064 46.512 39.28 0 64.672-18.256 64.672-46.512 0-15.744-5.424-21.856-10.656-27.76z" horiz-adv-x="560"/>
<glyph unicode="" d="M632 256h-592c-2.464 0-4.8-1.136-6.32-3.072s-2.048-4.464-1.456-6.864l64.096-256.272c1.536-5.392 6.256-21.792 23.68-21.792h432c17.488 0 22.16 16.416 23.76 22.064l64 256c0.592 2.384 0.064 4.928-1.456 6.864-1.504 1.936-3.84 3.072-6.304 3.072zM560.32-5.808c-2.912-10.192-5.92-10.192-8.32-10.192h-432c-2.384 0-5.376 0-8.24 9.936l-61.504 246.064h571.504l-61.44-245.808zM296 32c4.416 0 8 3.584 8 8v144c0 4.416-3.584 8-8 8s-8-3.584-8-8v-144c0-4.416 3.584-8 8-8zM183.984 32c0.304 0 0.592 0.016 0.912 0.048 4.384 0.496 7.552 4.448 7.056 8.832l-16 144c-0.48 4.4-4.32 7.504-8.848 7.072-4.384-0.496-7.552-4.448-7.056-8.832l16-144c0.448-4.096 3.92-7.12 7.936-7.12zM392 32c4.416 0 8 3.584 8 8v144c0 4.416-3.584 8-8 8s-8-3.584-8-8v-144c0-4.416 3.584-8 8-8zM487.104 32.048c0.32-0.032 0.608-0.048 0.912-0.048 4.016 0 7.488 3.024 7.936 7.12l16 144c0.48 4.384-2.672 8.336-7.056 8.832-4.592 0.448-8.352-2.672-8.848-7.072l-16-144c-0.48-4.384 2.672-8.336 7.056-8.832zM552 288c1.856 0 3.712 0.64 5.232 1.952 3.344 2.896 3.696 7.936 0.816 11.28l-152 176c-2.896 3.36-7.936 3.696-11.28 0.832-3.344-2.896-3.696-7.936-0.816-11.28l152-176c1.584-1.84 3.808-2.784 6.048-2.784zM285.056 478.192c-3.408 2.768-8.448 2.304-11.248-1.136l-144-176c-2.8-3.408-2.304-8.448 1.12-11.264 1.488-1.2 3.296-1.792 5.072-1.792 2.32 0 4.608 0.992 6.192 2.944l144 176c2.8 3.408 2.288 8.448-1.136 11.248zM664 320h-64c-4.416 0-8-3.584-8-8s3.584-8 8-8h64c4.416 0 8 3.584 8 8s-3.584 8-8 8zM216 304h256c4.416 0 8 3.584 8 8s-3.584 8-8 8h-256c-4.416 0-8-3.584-8-8s3.584-8 8-8zM8 304h80c4.416 0 8 3.584 8 8s-3.584 8-8 8h-80c-4.416 0-8-3.584-8-8s3.584-8 8-8z" horiz-adv-x="672"/>
<glyph unicode="" d="M320.96 473.392c-9.28 8.528-24.624 8.528-33.904 0l-283.008-170.736c-2.4-1.456-3.872-4.048-3.872-6.848v-302.752c0-13.808 11.296-25.056 25.184-25.056h557.28c13.888 0 25.184 11.248 25.184 25.056v302.752c0 2.8-1.472 5.392-3.872 6.848l-282.992 170.736zM296.064 460.16c0.56 0.336 1.056 0.736 1.52 1.184 1.728 1.712 4 2.656 6.416 2.656s4.688-0.944 6.4-2.656c0.464-0.448 0.976-0.848 1.52-1.184l275.632-166.304-199.648-118.976c-3.792-2.272-5.040-7.168-2.784-10.976 1.504-2.512 4.16-3.904 6.88-3.904 1.392 0 2.8 0.352 4.080 1.12l195.92 116.64v-284.112l-270.96 180.256c-8.608 6.864-25.504 6.864-33.536 0.4l-271.504-180.576v284.032l195.904-116.64c1.28-0.768 2.704-1.12 4.096-1.12 2.72 0 5.376 1.392 6.88 3.904 2.256 3.792 1.008 8.704-2.784 10.976l-199.664 118.976 275.632 166.304zM577.44-16h-547.008l266.496 177.376c2.768 2.208 11.392 2.192 14.704-0.4l265.808-176.976zM104 272h400c4.416 0 8 3.584 8 8s-3.584 8-8 8h-400c-4.416 0-8-3.584-8-8s3.584-8 8-8z" horiz-adv-x="608"/>
<glyph unicode="" d="M240-24v152c0 4.416-2.128 16-6.544 16s-9.456-3.584-9.456-8v-160c0-4.416 5.024-8 9.456-8s6.544 3.584 6.544 8zM241.456 455.008v16.992c0 4.416-3.584 8-8 8s-8-3.584-8-8v-16.992c0-4.416 3.584-8 8-8s8 3.568 8 8zM62.24 424.464l-57.072-44.768c-3.28-3.024-5.168-7.296-5.168-11.696s1.888-8.672 5.664-12.128l56.080-43.92c4.912-4.528 13.664-7.952 20.368-7.952h221.248c9.168 0 16.64 7.408 16.64 16.528v94.944c0 9.12-7.472 16.528-16.64 16.528h-221.248c-6.704 0-15.456-3.424-19.872-7.536zM304 320.528c0-0.24-0.288-0.528-0.64-0.528h-221.248c-2.72 0-7.536 1.872-10 4.128l-56.576 43.408 57.056 44.768c2 1.824 6.8 3.696 9.52 3.696l221.888-0.528v-94.944zM402.256 280.048c-4.912 4.528-13.664 7.952-20.368 7.952h-221.248c-9.168 0-16.64-7.408-16.64-16.528v-94.96c0-9.104 7.472-16.512 16.64-16.512h221.248c6.704 0 15.456 3.424 19.888 7.536l57.056 44.768c3.28 3.024 5.168 7.296 5.168 11.696s-1.888 8.672-5.664 12.128l-56.080 43.92zM160 272h221.888c2.72 0 7.536-1.872 10-4.128l56.576-43.408-57.056-44.768c-2-1.824-6.8-3.696-9.52-3.696h-221.888v96z" horiz-adv-x="464"/>
<glyph unicode="" d="M439.424 442.976c-0.848 2.112-2.544 3.76-4.672 4.544-2.128 0.768-4.496 0.624-6.496-0.432l-190.496-100.512c-3.584-1.888-5.184-6.16-3.728-9.936l3.92-10.256-109.968-60.304c-3.6-1.968-5.12-6.32-3.552-10.080l3.648-8.784-116.784-55.808c-3.84-1.84-5.568-6.352-3.936-10.288l23.968-57.76c1.28-3.072 4.24-4.944 7.392-4.944 0.896 0 1.792 0.144 2.672 0.464l122 43.216 3.648-8.784c1.264-3.056 4.224-4.944 7.392-4.944 0.736 0 1.472 0.096 2.224 0.32l116.416 33.552 3.488-9.104c1.184-3.152 4.208-5.136 7.44-5.136 0.784 0 1.568 0.112 2.352 0.352l208 64c2.144 0.656 3.904 2.176 4.864 4.192s1.040 4.352 0.208 6.416l-80 200.016zM43.2 136.496l-18.144 43.744 109.168 52.176 23.024-55.52-114.048-40.4zM179.056 166.032l-3.808 9.184c0 0 0 0 0 0l-29.488 71.12c0 0 0 0 0 0l-3.808 9.168 101.376 55.6 37.984-98.144 6-15.696-108.256-31.232zM308.8 185.84l-3.248 8.496c-0.048 0.176-0.016 0.384-0.096 0.56l-9.888 25.552-44.064 115.296 176.368 93.040 73.472-183.68-192.544-59.264zM463.424 474.976c-1.648 4.112-6.32 6.096-10.4 4.464-4.096-1.648-6.096-6.304-4.464-10.4l96-240c1.264-3.136 4.272-5.040 7.44-5.040 0.992 0 2 0.176 2.976 0.576 4.096 1.648 6.096 6.304 4.464 10.4l-96.016 240zM288 144h-48c-18.24 0-32-13.76-32-32v-21.040l-94.064-109.744c-2.88-3.344-2.496-8.4 0.864-11.28 1.504-1.296 3.36-1.936 5.2-1.936 2.256 0 4.496 0.944 6.064 2.8l93.616 109.2h36.32v-104c0-4.416 3.584-8 8-8s8 3.584 8 8v104h36.32l93.6-109.2c1.584-1.856 3.824-2.8 6.080-2.8 1.84 0 3.696 0.64 5.2 1.936 3.36 2.88 3.744 7.92 0.864 11.28l-94.064 109.744v19.84c0 18.608-14.048 33.2-32 33.2zM304 96h-80v16c0 9.424 6.576 16 16 16h48c9.12 0 16-7.392 16-17.2v-14.8z" horiz-adv-x="560"/>
<glyph unicode="" d="M59.072 132.48c2.816-0.672 6.64-4.144 7.744-7.312l5.6-13.504c1.264-2.592 1.024-7.728-0.48-10.192l-22.352-36.544c-4.784-7.84-3.792-18.944 2.64-26.144l18.928-18.912c6.592-5.856 18.224-6.912 25.808-2.32l36.544 22.352c2.288 1.408 7.2 1.904 10.64 0.288l13.488-5.568c2.72-0.944 6.192-4.752 6.864-7.568l10.032-41.664c2.128-8.832 10.56-16.096 19.616-16.928 0 0 5.552-0.512 13.872-0.512s13.872 0.512 13.888 0.512c9.040 0.816 17.472 8.096 19.6 16.928l10.048 41.664c0.672 2.8 4.128 6.624 7.296 7.728l13.504 5.6c2.384 1.168 7.904 0.928 10.192-0.48l36.544-22.352c3.216-1.968 7.056-3.008 11.136-3.008 5.52 0 10.864 1.936 15.008 5.632l18.912 18.928c6.112 6.864 7.104 17.968 2.32 25.808l-22.352 36.544c-1.504 2.464-1.744 7.6-0.288 10.64l5.568 13.488c0.944 2.72 4.752 6.192 7.568 6.864l41.664 10.032c8.832 2.128 16.096 10.56 16.928 19.616 0 0 0.512 5.552 0.512 13.872s-0.512 13.872-0.512 13.888c-0.816 9.040-8.096 17.472-16.928 19.616l-41.648 10.016c-2.816 0.672-6.64 4.144-7.744 7.312l-5.6 13.504c-1.264 2.592-1.024 7.728 0.48 10.192l22.352 36.544c4.784 7.84 3.792 18.944-2.64 26.144l-18.928 18.912c-6.608 5.872-18.256 6.928-25.808 2.32l-36.544-22.352c-2.288-1.392-7.216-1.92-10.64-0.288l-13.488 5.568c-2.72 0.944-6.176 4.752-6.848 7.568l-10.048 41.664c-2.128 8.832-10.56 16.096-19.616 16.928-0.032-0.016-5.584 0.496-13.904 0.496s-13.872-0.512-13.888-0.512c-9.040-0.816-17.472-8.096-19.616-16.928l-10.016-41.632c-0.672-2.816-4.144-6.64-7.312-7.744l-13.504-5.6c-2.4-1.168-7.904-0.912-10.192 0.48l-36.528 22.352c-7.568 4.608-18.96 3.808-26.144-2.624l-18.912-18.928c-6.112-6.864-7.104-17.968-2.32-25.808l22.352-36.544c1.504-2.464 1.744-7.6 0.288-10.64l-5.568-13.488c-0.944-2.72-4.752-6.192-7.568-6.864l-41.664-10.032c-8.832-2.128-16.096-10.56-16.928-19.616 0.032 0-0.48-5.552-0.48-13.872s0.512-13.872 0.512-13.888c0.816-9.040 8.096-17.472 16.928-19.616l41.632-10.016zM16 176c0 7.328 0.432 12.272 0.448 12.432 0.192 2.16 2.64 4.992 4.736 5.504l41.664 10.032c8.080 1.952 16.224 9.344 18.752 16.752l5.184 12.592c3.648 7.472 3.136 18.448-1.2 25.552l-22.352 36.528c-1.072 1.776-0.768 5.296 0.288 6.496l18.256 18.272c1.456 1.296 5.168 1.616 6.832 0.608l36.544-22.352c6.928-4.24 18.8-4.528 25.088-1.408l12.608 5.216c7.856 2.704 15.248 10.848 17.2 18.944l10.016 41.648c0.512 2.112 3.344 4.56 5.504 4.752 0.16 0 5.104 0.432 12.432 0.432s12.272-0.432 12.432-0.448c2.16-0.192 4.992-2.64 5.504-4.736l10.032-41.648c1.952-8.080 9.328-16.24 16.752-18.768l12.592-5.184c7.312-3.584 18.64-3.024 25.552 1.2l36.528 22.352c1.664 1.008 5.6 0.48 6.496-0.288l18.272-18.256c1.376-1.552 1.68-5.056 0.608-6.832l-22.352-36.544c-4.336-7.088-4.848-18.080-1.408-25.088l5.216-12.608c2.704-7.856 10.848-15.248 18.944-17.2l41.648-10.016c2.112-0.512 4.56-3.344 4.752-5.504 0-0.16 0.432-5.104 0.432-12.432s-0.432-12.272-0.448-12.432c-0.192-2.16-2.64-4.992-4.736-5.504l-41.664-10.032c-8.080-1.952-16.224-9.344-18.752-16.752l-5.184-12.592c-3.648-7.472-3.136-18.448 1.2-25.552l22.352-36.528c1.072-1.776 0.768-5.296-0.288-6.496l-18.256-18.272c-0.864-0.768-2.432-1.264-4.016-1.264-1.104 0-2.128 0.24-2.8 0.656l-36.544 22.352c-6.912 4.224-18.784 4.528-25.088 1.408l-12.608-5.216c-7.856-2.704-15.248-10.864-17.184-18.944l-10.032-41.648c-0.512-2.112-3.344-4.56-5.504-4.752-0.176 0-5.12-0.432-12.448-0.432s-12.272 0.432-12.432 0.448c-2.16 0.192-4.992 2.64-5.504 4.736l-10.032 41.664c-1.952 8.080-9.344 16.224-16.752 18.752l-12.592 5.184c-3.264 1.6-7.216 2.432-11.44 2.432-5.264 0-10.272-1.296-14.112-3.648l-36.528-22.352c-1.664-1.008-5.616-0.464-6.496 0.288l-18.272 18.272c-1.376 1.552-1.68 5.056-0.608 6.832l22.352 36.544c4.336 7.088 4.848 18.080 1.408 25.088l-5.216 12.608c-2.704 7.856-10.848 15.248-18.944 17.2l-41.648 10.016c-2.112 0.512-4.56 3.344-4.752 5.504 0 0.16-0.432 5.104-0.432 12.432zM208 88c48.528 0 88 39.472 88 88s-39.472 88-88 88-88-39.472-88-88 39.472-88 88-88zM208 248c39.696 0 72-32.304 72-72s-32.304-72-72-72-72 32.304-72 72 32.304 72 72 72zM439.632 394.976c-0.64-0.976-2.96-2.208-4.144-2.208l-29.776 0.288c-7.232 0-14.48-5.136-16.848-11.936 0 0-1.312-3.728-2.752-9.44s-2.048-9.616-2.048-9.616c-1.12-7.216 2.896-15.2 9.344-18.576l26.256-13.76c1.008-0.528 2.496-2.752 2.656-4.368l1.488-10.16c0.24-1.12-0.528-3.68-1.344-4.48l-21.152-20.736c-5.296-5.184-6.688-14.048-3.040-21.008l9.584-16c4.048-5.952 12.816-8.992 19.696-6.848l29.184 8.928c1.584 0 3.168-0.608 4.064-1.328l8.24-6.080c0.96-0.64 2.224-2.992 2.208-4.144l-0.288-29.632c-0.064-7.296 5.056-14.608 11.936-17.008 0 0 3.728-1.312 9.44-2.752s9.616-2.048 9.616-2.048c0.416-0.064 2.080-0.192 2.496-0.192 6.528 0 13.152 3.92 16.080 9.536l13.76 26.256c0.528 1.008 2.752 2.496 4.368 2.656l10.608 1.536c1.6 0 3.488-0.832 4.016-1.376l20.736-21.152c5.040-5.152 13.536-6.992 21.008-3.040l15.984 9.584c6.112 4.16 9.072 12.64 6.864 19.696l-8.832 28.272c-0.336 1.088 0.192 3.712 1.248 4.976l6.080 8.24c0.64 0.976 2.96 2.208 4.144 2.208l29.776-0.288c7.232 0 14.48 5.136 16.848 11.936 0 0 1.312 3.728 2.752 9.44s2.048 9.616 2.048 9.616c1.12 7.216-2.896 15.2-9.344 18.576l-26.256 13.76c-1.008 0.528-2.496 2.752-2.656 4.368l-1.472 10.128c-0.24 1.12 0.528 3.68 1.344 4.48l21.152 20.736c5.296 5.184 6.688 14.048 3.040 21.008l-9.584 16c-4.048 5.936-12.8 9.008-19.696 6.864l-29.2-8.928c-1.584 0-3.168 0.608-4.064 1.328l-8.24 6.080c-0.96 0.64-2.224 2.992-2.208 4.144l0.288 29.632c0.064 7.296-5.056 14.608-11.936 17.008 0 0-3.728 1.312-9.44 2.752s-9.616 2.048-9.616 2.048c-0.416 0.048-2.080 0.176-2.496 0.176-6.528 0-13.152-3.92-16.080-9.536l-13.76-26.256c-0.528-1.008-2.752-2.496-4.368-2.656l-10.608-1.52c-1.6 0-3.488 0.832-4.016 1.376l-20.736 21.152c-5.024 5.136-13.504 6.992-21.008 3.040l-16-9.568c-6.112-4.16-9.072-12.64-6.864-19.696l8.832-28.272c0.336-1.088-0.192-3.712-1.248-4.976l-6.064-8.24zM452.752 385.824l5.488 7.456c4.288 5.072 5.952 13.344 3.968 19.664l-8.816 28.256c-0.080 0.448 0.272 1.456 0.192 1.472l15.168 9.088 1.808-0.272 20.752-21.152c3.68-3.744 9.744-6.176 15.44-6.176 1.312 0 2.576 0.128 3.264 0.304l9.2 1.36c6.592 0.576 13.616 5.248 16.688 11.104l13.744 26.24c0.256 0.4 1.264 0.976 1.92 0.976 0.176-0.016 3.44-0.56 8.208-1.744 4.752-1.2 7.888-2.272 8.032-2.336 0.496-0.208 1.216-1.248 1.248-1.76l-0.288-29.632c-0.064-6.624 3.92-14.064 9.072-17.424l7.44-5.488c4.944-4.176 13.424-5.936 19.664-3.968l28.384 8.832c0.672 0 1.424-0.416 1.328-0.208l9.088-15.168c0.176-0.416 0-1.472-0.272-1.808l-21.152-20.752c-4.72-4.656-7.168-12.72-5.872-18.704l1.344-9.2c0.576-6.592 5.248-13.616 11.12-16.688l26.24-13.744c0.448-0.288 1.008-1.408 0.976-1.92-0.016-0.176-0.56-3.44-1.744-8.208-1.2-4.752-2.272-7.888-2.336-8.032-0.208-0.496-1.248-1.216-1.76-1.248l-29.792 0.288c-6.576 0-13.936-3.984-17.264-9.072l-5.472-7.44c-4.288-5.072-5.952-13.344-3.968-19.664l8.816-28.256c0.080-0.432-0.272-1.456-0.192-1.472l-15.168-9.088-1.808 0.272-20.752 21.152c-3.68 3.744-9.744 6.176-15.44 6.176-1.312 0-2.576-0.128-3.264-0.304l-9.2-1.36c-6.592-0.576-13.616-5.248-16.688-11.104l-13.744-26.24c-0.256-0.4-1.264-0.976-1.92-0.976v0c-0.176 0.016-3.44 0.56-8.208 1.744-4.752 1.2-7.888 2.272-8.032 2.336-0.496 0.208-1.216 1.248-1.248 1.76l0.288 29.632c0.064 6.624-3.92 14.064-9.072 17.424l-7.44 5.488c-3.552 3.008-8.784 4.8-14 4.8-2.016 0-3.936-0.288-5.68-0.832l-28.384-8.832c-0.688 0-1.44 0.368-1.328 0.208l-9.088 15.168c-0.176 0.416 0 1.472 0.272 1.808l21.152 20.752c4.72 4.656 7.168 12.72 5.872 18.704l-1.344 9.184c-0.576 6.592-5.248 13.616-11.12 16.688l-26.24 13.744c-0.448 0.288-1.008 1.408-0.976 1.92 0.016 0.176 0.56 3.44 1.744 8.208 1.2 4.752 2.272 7.888 2.336 8.032 0.208 0.496 1.248 1.216 1.76 1.248l29.792-0.288c6.576 0 13.936 3.984 17.264 9.072zM528 288c26.464 0 48 21.536 48 48s-21.536 48-48 48-48-21.536-48-48 21.536-48 48-48zM528 368c17.648 0 32-14.352 32-32s-14.352-32-32-32-32 14.352-32 32 14.352 32 32 32z" horiz-adv-x="672"/>
<glyph unicode="" d="M234.928 244.832c1.872 0 3.76 0.656 5.28 1.984l181.072 158.752-10.56 12.032-181.072-158.736c-3.328-2.912-3.664-7.968-0.736-11.296 1.584-1.808 3.792-2.736 6.016-2.736zM163.008-32c98.272 0 156.992 77.28 156.992 152 0 21.536-5.152 45.264-12.768 60.672l72.352 36.176c2.704 1.36 4.416 4.128 4.416 7.152v64h48c0.176 0 1.632 0.096 1.808 0.096 10.656 0.72 13.84 4.112 14.192 15.904v64h48c2.064 0 3.488-0.224 4.448-0.368 1.936-0.304 5.552-0.864 8.688 1.952 3.232 2.88 3.088 6.528 2.96 9.744-0.032 1.152-0.096 2.672-0.096 4.672v72.496c0 12.96-10.544 23.504-23.504 23.504h-62c-5.664 0-11.168-2.064-15.504-5.824l-210.992-184.96c-10.384 2.080-26.080 4.784-37.008 4.784-89.872 0-162.992-73.12-162.992-162.992s73.12-163.008 163.008-163.008zM163.008 278c8.016 0 21.744-1.92 37.664-5.248 2.48-0.544 5.024 0.16 6.912 1.808l213.936 187.552c1.392 1.216 3.168 1.888 4.976 1.888h62c4.144 0 7.504-3.36 7.504-7.504v-72.496h-56c-4.416 0-8-3.584-8-8v-72h-56c-4.416 0-8-3.584-8-8v-67.056l-75.584-37.792c-2.096-1.040-3.632-2.976-4.192-5.248s-0.096-4.688 1.28-6.592c7.040-9.712 14.496-33.824 14.496-59.312 0-66.848-52.736-136-140.992-136-81.056 0-147.008 65.952-147.008 147.008s65.952 146.992 147.008 146.992zM136 48c30.88 0 56 25.12 56 56s-25.12 56-56 56-56-25.12-56-56 25.12-56 56-56zM136 144c22.048 0 40-17.952 40-40s-17.952-40-40-40-40 17.952-40 40 17.952 40 40 40z"/>
<glyph unicode="" d="M89.392-29.872c32.24 0 66.928 16.416 91.312 40.816l270.128 274.704c13.856 13.856 21.568 32.224 21.696 51.696 0.144 19.52-7.344 37.824-21.056 51.552-28.288 28.272-74.576 28.016-103.392-0.768l-207.056-216.48c-3.248-3.408-3.136-8.832 0.288-12.096 3.408-3.264 8.8-3.136 12.096 0.272l206.912 216.352c21.968 21.984 57.456 22.256 79.056 0.64 10.448-10.448 16.16-24.416 16.048-39.328-0.096-14.96-6.032-29.056-16.736-39.776l-270.128-274.72c-28.416-28.4-86.816-54.16-121.84-19.104-16.592 16.592-24.912 36.944-24.048 58.864 0.848 21.76 11.088 43.52 28.912 61.328l308.736 313.344c16.416 16.416 42.064 25.92 70.336 26.016 0.176 0 0.336 0 0.512 0 28.032 0 53.328-9.232 69.472-25.376 16.256-16.24 25.504-41.744 25.392-69.984-0.112-28.272-9.616-53.904-26.144-70.432l-238.32-247.76c-3.28-3.408-3.168-8.816 0.24-12.096 3.392-3.264 8.816-3.168 12.080 0.24l238.208 247.648c19.6 19.584 30.912 49.6 31.024 82.336 0.144 32.752-10.944 62.704-30.384 82.144-19.328 19.328-49.024 30.4-81.568 30.4-0.192 0-0.384 0-0.576 0-32.752-0.128-62.768-11.44-82.4-31.072l-308.752-313.36c-43.216-43.216-45.232-103.92-4.816-144.336 15.152-15.136 34.464-21.664 54.768-21.664z" horiz-adv-x="544"/>
<glyph unicode="" d="M303.776 216.464c2.624-0.288 5.232-0.416 7.84-0.416 19.456 0 38.112 7.696 52.128 21.712l118.48 118.48c13.856 13.856 21.584 32.224 21.696 51.696 0.144 19.52-7.344 37.824-21.056 51.552-13.6 13.6-31.68 21.072-51.008 21.072-0.176 0-0.336 0-0.528 0-19.472-0.128-37.824-7.84-51.68-21.696l-118.48-118.48c-17.52-17.52-25.104-42.384-20.304-66.512 0.928-4.64 5.536-7.664 10.064-6.704 4.64 0.928 7.648 5.424 6.72 10.048-3.696 18.512 2.144 37.616 15.616 51.072l118.48 118.48c10.656 10.672 24.768 16.592 39.712 16.688 15.6 0 28.88-5.6 39.328-16.048s16.16-24.432 16.064-39.328c-0.112-14.96-6.032-29.056-16.704-39.712l-118.48-118.48c-12.224-12.208-29.008-18.128-46.064-16.384-4.56 0.528-8.912-2.896-9.408-7.6-0.512-4.736 2.896-8.944 7.584-9.44zM242.24 107.632c18.368 18.368 25.728 44.304 19.664 69.344-1.104 4.592-5.616 7.456-10.336 6.304-4.592-1.104-7.408-5.728-6.304-10.32 4.656-19.216-1.008-39.104-15.136-53.248l-118.48-118.48c-10.656-10.672-24.768-16.592-39.712-16.688-15.344-0.080-28.88 5.584-39.328 16.048-10.448 10.448-16.16 24.416-16.048 39.328 0.096 14.96 6.032 29.056 16.688 39.728l118.48 118.48c12.336 12.336 29.152 18.304 46.496 16.336 4.608-0.352 8.944 2.832 9.472 7.536 0.528 4.688-2.832 8.928-7.536 9.472-22.464 2.528-44.48-5.184-60.528-21.232l-118.48-118.48c-13.856-13.856-21.568-32.224-21.696-51.696-0.144-19.52 7.344-37.824 21.056-51.552 13.6-13.6 31.68-21.072 51.008-21.072 0.176 0 0.336 0 0.528 0 19.472 0.128 37.824 7.84 51.68 21.696l118.512 118.496zM363.744 338.048c-3.344 3.344-8.752 3.344-12.096 0l-216-216c-3.344-3.328-3.344-8.752 0-12.096 1.664-1.664 3.856-2.512 6.048-2.512s4.368 0.832 6.048 2.512l216 216c3.344 3.344 3.344 8.752 0 12.096z"/>
<glyph unicode="" d="M648 480h-160c-11.056 0-25.184-6.016-32.752-13.92l-21.28-21.44c-3.104-3.136-3.072-8.208 0.064-11.312 3.104-3.104 8.208-3.088 11.312 0.048l21.344 21.536c4.56 4.752 14.72 9.088 21.312 9.088h160c4.4 0 8-3.584 8-8v-160.784c0-6.576-4.336-16.736-9.184-21.392l-225.296-223.552c-3.216-3.056-8.56-2.976-11.68 0.128l-42.368 42.384c-3.12 3.12-8.192 3.12-11.312 0s-3.12-8.192 0-11.312l42.368-42.384c4.704-4.688 10.944-7.056 17.184-7.056 6.112 0 12.24 2.256 16.992 6.784l225.312 223.568c7.968 7.648 13.984 21.776 13.984 32.832v160.784c0 13.232-10.768 24-24 24zM624.608 400c0 17.648-14.352 32-32 32s-32-14.352-32-32 14.352-32 32-32 32 14.352 32 32zM576.608 400c0 8.816 7.168 16 16 16s16-7.184 16-16-7.168-16-16-16-16 7.184-16 16zM263.392 416c-11.056 0-25.184-6.016-32.768-13.92l-223.888-226.096c-9.088-9.472-8.96-24.752 0.336-34.048l166.848-166.848c4.56-4.576 10.672-7.088 17.216-7.088 6.336 0 12.32 2.384 16.944 6.816l225.296 223.552c7.984 7.648 14.016 21.776 14.016 32.848v160.784c0 13.232-10.768 24-24 24h-160zM432 392v-160.784c0-6.592-4.944-16.736-9.792-21.392l-225.296-223.552c-3.12-2.96-8.64-2.896-11.664 0.128l-166.864 166.832c-3.12 3.136-3.184 8.48-0.208 11.568l223.904 226.112c4.56 4.752 14.72 9.088 21.312 9.088h160c4.4 0 8.608-3.584 8.608-8zM368 368c-17.648 0-32-14.352-32-32s14.352-32 32-32 32 14.352 32 32-14.352 32-32 32zM368 320c-8.832 0-16 7.184-16 16s7.168 16 16 16 16-7.184 16-16-7.168-16-16-16z" horiz-adv-x="672"/>
<glyph unicode="" d="M176 480c-84.64 0-176-67.296-176-176 0-53.648 21.344-98.784 62.336-132.992 0.432-0.544 0.928-1.008 1.472-1.408 30.416-32.992 31.952-39.264 32.16-53.776 0.096-5.744 0.048-7.44 0-8.368l-0.064-3.344c-0.24-7.232-0.608-19.344 14.384-23.92l129.504-28.496c0.576-0.128 1.152-0.192 1.712-0.192 3.68 0 6.992 2.544 7.808 6.288 0.96 4.32-1.776 8.592-6.096 9.536l-128.88 28.336c-2.48 0.752-2.688 0.816-2.464 7.968l0.048 3.056c0 0 0.16 1.248 0.032 9.376-0.304 20.304-4.72 30.112-36.944 64.944-0.624 0.768-1.376 1.408-2.208 1.888-37.696 32.048-56.8 72.784-56.8 121.104 0 98.832 83.040 160 160 160 78.656 0 160-59.856 160-160 0-63.648-30.848-98.736-56.288-120.816-0.88-0.416-1.664-1.008-2.352-1.744-32.592-35.264-37.008-45.072-37.312-65.376 0-0.48-0.016-1.040 0-1.648l-0.016-0.56c-0.048-1.216-0.224-1.888-0.208-2.144-0.544 0.080-1.872 0.288-1.872 0.288l-67.12 15.792c-4.352 0.992-8.608-1.664-9.616-5.952-1.008-4.304 1.648-8.608 5.952-9.632l66.304-15.552c0.88-0.32 8.848-2.912 15.568 1.808 2.928 2.064 6.336 6.112 6.944 13.856l0.048 0.752c0.016 0.512 0.032 1.040 0.032 1.584 0 0.144 0 0.288-0.016 0.416l0.016 0.736c0.208 14.432 1.712 20.704 32.080 53.696 0.144 0.112 0.304 0.224 0.432 0.352 42.672 35.856 63.424 79.744 63.424 134.144 0 110.16-89.488 176-176 176zM240 8c3.664 0 6.96 2.512 7.792 6.24 0.992 4.304-1.712 8.592-6.032 9.568l-128 29.024c-4.336 0.96-8.592-1.728-9.568-6.032-0.992-4.304 1.712-8.592 6.032-9.568l128-29.024c0.608-0.144 1.2-0.208 1.776-0.208zM121.744 7.136c-4.336 0.96-8.576-1.744-9.568-6.048-0.96-4.32 1.744-8.592 6.064-9.552l104-23.328c0.608-0.144 1.184-0.208 1.76-0.208 3.664 0 6.976 2.528 7.808 6.256 0.96 4.32-1.744 8.592-6.064 9.552l-104 23.328z" horiz-adv-x="352"/>
<glyph unicode="" d="M492.24 363.808l-184.688 104.24c-25.136 14.192-68.336 14.208-93.52 0l-184.688-104.24c-14.128-7.984-21.888-19.152-21.888-31.472s7.776-23.488 21.888-31.456l184.688-104.256c12.576-7.104 29.184-11.008 46.752-11.008 17.584 0 34.192 3.92 46.768 11.008l184.688 104.256c14.128 7.968 21.904 19.136 21.904 31.456s-7.792 23.488-21.904 31.472zM483.824 315.76l-184.688-104.256c-19.808-11.184-56.896-11.2-76.704 0l-184.688 104.256c-8.384 4.736-13.184 10.784-13.184 16.576 0 5.808 4.8 11.84 13.184 16.592l184.688 104.256c9.904 5.6 23.888 8.8 38.336 8.8 14.464 0 28.448-3.216 38.352-8.8l184.688-104.256c8.384-4.736 13.2-10.784 13.2-16.592 0.016-5.792-4.784-11.84-13.184-16.576zM492.24 254.416c-4.096 2.32-9.312 0.88-11.664-3.248-2.32-4.112-0.864-9.328 3.248-11.648 8.384-4.736 13.2-10.784 13.2-16.576s-4.816-11.84-13.2-16.576l-184.688-104.256c-20.768-11.728-55.904-11.744-76.704 0l-184.688 104.256c-8.384 4.736-13.184 10.784-13.184 16.576s4.8 11.84 13.184 16.576c4.112 2.32 5.568 7.536 3.248 11.648-2.336 4.128-7.568 5.584-11.664 3.248-14.128-7.968-21.888-19.152-21.888-31.472s7.76-23.504 21.888-31.472l184.688-104.256c13.104-7.392 29.936-11.104 46.752-11.104 16.832 0 33.664 3.696 46.768 11.104l184.688 104.256c14.128 7.968 21.904 19.152 21.904 31.472s-7.776 23.504-21.888 31.472zM492.24 147.136c-4.096 2.32-9.312 0.88-11.664-3.248-2.32-4.112-0.864-9.328 3.248-11.648 8.384-4.736 13.2-10.784 13.2-16.576s-4.816-11.84-13.2-16.592l-184.688-104.256c-20.768-11.728-55.904-11.744-76.704 0l-184.688 104.272c-8.384 4.736-13.184 10.784-13.184 16.592 0 5.792 4.8 11.84 13.184 16.576 4.112 2.32 5.568 7.536 3.248 11.648-2.336 4.112-7.568 5.584-11.664 3.248-14.096-7.984-21.872-19.152-21.872-31.488s7.76-23.504 21.888-31.472l184.688-104.256c13.104-7.392 29.936-11.104 46.752-11.104 16.832 0 33.664 3.696 46.768 11.104l184.688 104.256c14.128 7.984 21.904 19.152 21.904 31.472s-7.792 23.504-21.904 31.472z"/>
<glyph unicode="" d="M0-23.664c0-4.416 3.584-8 8-8h497.776c1.072 0 2.112 0.208 3.088 0.624s1.856 1.008 2.592 1.744c0.016 0.016 0.032 0.016 0.048 0.032 0.048 0.048 0.048 0.144 0.112 0.192 0.816 0.88 1.344 1.952 1.712 3.12 0.112 0.368 0.16 0.72 0.224 1.104 0.064 0.4 0.24 0.752 0.24 1.168 0 0.64-0.224 1.2-0.368 1.792-0.048 0.224 0.048 0.448-0.032 0.672l-50.56 155.44c-0.384 1.2-1.056 2.304-1.952 3.184l-273.872 273.888c-0.288 0.448-0.496 0.928-0.88 1.328l-59.824 59.824c-9.712 9.712-25.52 9.712-35.248 0l-83.76-83.76c-4.704-4.704-7.296-10.96-7.296-17.616s2.592-12.928 7.296-17.632l58.496-58.496c0.288-0.432 0.48-0.928 0.864-1.312l273.44-275.28c0.944-0.96 2.096-1.648 3.392-2.032l107.408-32h-442.896c-4.416 0.016-8-3.568-8-7.984zM101.792 317.424l250.992-247.776-9.232-32.032-259.92 261.648 18.16 18.16zM365.056 80l-251.968 248.72 38.992 38.992 249.712-250.368v-37.344h-36.736zM411.76 130l-248.368 249.024 16.624 16.624 259.376-259.376-27.632-6.272zM367.808 64h41.984c4.416 0 8 3.584 8 8v42.96l32.112 7.296 43.568-133.92-135.808 40.464 10.144 35.2zM16 371.072c0 2.384 0.928 4.608 2.608 6.304l83.76 83.76c3.472 3.472 9.12 3.488 12.624 0l53.952-53.952-96.368-96.368-53.952 53.952c-1.696 1.68-2.624 3.92-2.624 6.304z"/>
<glyph unicode="" d="M3.376 389.664c-13.552-13.568-10.656-32.672 0.128-43.44 0.432-0.416 43.744-41.792 104.656-102.704 1.568-1.568 3.616-2.336 5.664-2.336s4.096 0.784 5.664 2.336c3.12 3.12 3.12 8.192 0 11.312-9.184 9.184-17.92 17.872-26.208 26.096l25.424 25.424c3.12 3.12 3.12 8.192 0 11.312s-8.192 3.12-11.312 0l-25.488-25.488c-14.256 14.080-26.816 26.368-37.040 36.336l57.84 57.84c3.12 3.12 3.12 8.192 0 11.312s-8.192 3.12-11.312 0l-58.016-58.016c-11.776 11.408-18.56 17.888-18.672 18-3.376 3.376-7.808 12.88 0 20.688l80 80c3.088 3.136 11.312 9.36 20.336 0.384 0.4-0.448 40.8-46.336 102.464-108 3.12-3.12 8.192-3.12 11.312 0s3.12 8.192 0 11.312c-61.28 61.264-101.376 106.8-102.112 107.632-14.912 14.88-32.896 10.416-43.312 0l-80.016-80zM342.704 93.664c-3.12 3.12-8.192 3.12-11.312 0l-25.456-25.44c-7.76 7.856-15.904 16.080-24.48 24.656-3.12 3.12-8.192 3.12-11.312 0s-3.12-8.192 0-11.312c59.264-59.248 100.656-103.504 101.248-104.144 5.488-5.504 13.008-8.528 21.168-8.528v0c8.4 0 16.896 3.28 22.16 8.56l79.968 80.912c10.064 10.064 10.64 27.136 1.248 36.56l-107.296 107.28c-3.12 3.12-8.192 3.12-11.312 0s-3.12-8.192 0-11.312l107.296-107.28c3.2-3.2 2.592-10.112-1.264-13.968l-79.984-80.912c-1.84-1.856-6.016-3.84-10.816-3.84 0 0 0 0 0 0-2.752 0-6.688 0.672-9.664 3.664-0.16 0.176-6.864 7.328-18.496 19.504l58.304 58.304c3.12 3.12 3.12 8.192 0 11.312s-8.192 3.12-11.312 0l-58.064-58.064c-9.984 10.384-22.224 23.008-36.16 37.216l25.536 25.536c3.12 3.104 3.12 8.16 0 11.296zM-4.688-29.264c1.536-1.568 3.6-2.4 5.728-2.4 0.768 0 1.536 0.112 2.288 0.336l160 47.664c1.296 0.384 2.448 1.072 3.392 2.032l273.44 275.28c0.384 0.384 0.576 0.88 0.864 1.312l58.496 58.496c4.704 4.72 7.312 10.976 7.312 17.648 0 6.656-2.608 12.912-7.312 17.6l-83.76 83.744c-9.408 9.408-25.84 9.408-35.248 0l-59.824-59.824c-0.384-0.384-0.592-0.88-0.88-1.328l-273.856-273.872c-0.896-0.896-1.568-1.984-1.952-3.184l-50.56-155.44c-0.928-2.832-0.208-5.92 1.872-8.064zM326.8 395.664l16.624-16.624-248.368-249.040-27.632 6.272 259.376 259.392zM105.040 117.344l249.712 250.368 38.976-38.976-251.968-248.736h-36.72v37.344zM423.184 299.264l-259.904-261.664-9.232 32.032 250.992 247.792 18.144-18.16zM56.928 122.256l32.112-7.296v-42.96c0-4.416 3.584-8 8-8h41.984l10.144-35.2-135.808-40.464 43.568 133.92zM391.84 461.136c3.376 3.376 9.248 3.376 12.624 0l83.76-83.76c1.68-1.68 2.608-3.92 2.608-6.304 0-2.368-0.928-4.624-2.624-6.32l-53.936-53.952-96.368 96.368 53.936 53.968z" horiz-adv-x="496"/>
<glyph unicode="" d="M453.664 458.336c1.84 1.84 2.672 4.464 2.224 7.024s-2.112 4.752-4.48 5.856c-36.656 17.28-80.16 9.696-108.768-19.056-27.168-27.344-36.656-70.288-23.984-106.192l-184.624-184.624c-10.032 3.584-20.752 5.376-31.936 5.376-27.424 0-54.016-10.912-72.944-29.952-28.512-28.672-36.544-71.040-20.496-107.952 1.056-2.432 3.248-4.192 5.856-4.672 2.624-0.496 5.296 0.336 7.152 2.224l55.856 56.144c3.68 3.712 9.616 4.208 12.688 1.088l24.112-25.232c3.504-3.536 3.344-8.992-0.352-12.72l-55.648-56c-1.84-1.84-2.656-4.464-2.208-7.024s2.112-4.736 4.464-5.84c13.264-6.256 27.216-9.408 41.456-9.408 25.152 0 49.040 10.112 67.312 28.48 27.168 27.328 36.656 70.272 23.968 106.176l184.624 184.64c10.048-3.584 20.768-5.376 31.952-5.376 27.424 0 54.016 10.912 72.944 29.952 28.512 28.672 36.544 71.040 20.496 107.952-1.056 2.432-3.248 4.192-5.856 4.672-2.576 0.448-5.28-0.336-7.152-2.224l-55.856-56.144c-3.44-3.456-9.28-3.424-12.816 0.16l-23.984 23.984c-3.616 3.632-3.6 9.088-0.016 12.704l56.016 55.984zM386.336 378.336l23.984-23.984c9.584-9.632 26-9.68 35.488-0.144l46.88 47.104c7.504-27.856-0.256-57.744-21.184-78.816-15.952-16.048-38.384-25.232-61.6-25.232-10.928 0-21.28 2.048-30.768 6.080-3.008 1.296-6.48 0.592-8.784-1.696l-192-192c-2.304-2.304-2.976-5.76-1.712-8.752 12.848-30.56 5.024-70-18.608-93.776-21.136-21.248-51.904-28.816-79.76-20.128l47.056 47.36c9.936 10 10.096 25.504 0.464 35.168l-24.096 25.232c-9.296 9.36-25.824 8.784-35.488-0.992l-46.88-47.104c-7.504 27.856 0.256 57.744 21.184 78.816 15.952 16.048 38.384 25.232 61.6 25.232 10.928 0 21.28-2.048 30.768-6.080 2.992-1.312 6.48-0.592 8.784 1.696l192 192c2.304 2.304 2.976 5.76 1.712 8.752-12.848 30.56-5.024 70.016 18.608 93.792 21.12 21.248 51.872 28.768 79.712 20.128l-47.36-47.376c-9.856-9.872-9.856-25.36 0-35.28zM467.36-10.352c-3.536-3.552-9.664-3.552-13.232 0.032l-160.48 160c-3.12 3.088-8.192 3.104-11.312-0.032-3.12-3.12-3.104-8.192 0.016-11.312l160.464-159.968c4.8-4.816 11.168-7.472 17.952-7.472 0 0 0 0 0 0 6.784 0 13.152 2.656 18.048 7.584l22.864 23.888c9.84 9.888 9.84 25.392-0.016 35.296l-160 160c-3.12 3.12-8.192 3.12-11.312 0s-3.12-8.192 0-11.312l159.984-159.984c3.664-3.68 3.664-9.024-0.112-12.832l-22.864-23.888zM93.664 429.664l-48 48c-3.12 3.12-8.192 3.12-11.312 0l-32-32c-3.12-3.12-3.12-8.192 0-11.312l48-48c1.552-1.568 3.6-2.352 5.648-2.352s4.096 0.784 5.664 2.336l10.336 10.352 122.336-122.336c1.568-1.568 3.616-2.352 5.664-2.352s4.096 0.784 5.664 2.336c3.12 3.12 3.12 8.192 0 11.312l-122.352 122.352 10.336 10.336c3.136 3.136 3.136 8.192 0.016 11.328zM56 403.312l-36.688 36.688 20.688 20.688 36.688-36.688-20.688-20.688z"/>
<glyph unicode="" d="M408 16c30.88 0 56 25.12 56 56s-25.12 56-56 56-56-25.12-56-56 25.12-56 56-56zM408 112c22.048 0 40-17.936 40-40s-17.952-40-40-40-40 17.936-40 40 17.952 40 40 40zM299.712 96.8c0-23.216 5.712-52.336 13.376-68.816 15.68-39.792 46.528-59.984 91.712-59.984 59.104 0 107.2 48.096 107.2 107.2 0 57.488-45.088 99.2-107.2 99.2-70.608 0-93.648 37.936-94.56 39.504-0.32 0.544-0.688 1.056-1.12 1.52l-245.68 262.048c-2.24 2.384-5.728 3.152-8.784 1.968-3.040-1.2-5.056-4.16-5.056-7.44 0-154.416 102.976-235.44 178.16-294.576 40.208-31.632 71.952-56.592 71.952-80.624zM66.304 451.024l230.592-245.952c4.288-6.784 32.704-46.672 107.904-46.672 52.848 0 91.2-34.992 91.2-83.2 0-50.304-40.912-91.2-91.2-91.2-38.48 0-63.616 16.32-77.008 50.304-5.856 12.576-12.080 38.768-12.080 62.496 0 31.792-34.448 58.896-78.048 93.2-69.072 54.336-162.432 127.76-171.36 261.024zM48 72c0-30.88 25.12-56 56-56s56 25.12 56 56-25.12 56-56 56-56-25.12-56-56zM144 72c0-22.064-17.952-40-40-40s-40 17.936-40 40 17.952 40 40 40 40-17.936 40-40zM330.144 232.464c-3.264-2.976-3.504-8.032-0.528-11.296 1.584-1.728 3.744-2.608 5.92-2.608 1.92 0 3.856 0.688 5.392 2.096 56.56 51.52 121.472 126.64 121.472 251.344 0 3.28-2 6.24-5.056 7.44-3.040 1.168-6.528 0.416-8.784-1.968l-174.72-186.336c-3.024-3.216-2.864-8.288 0.368-11.296 3.216-3.008 8.272-2.88 11.312 0.352l160.224 170.88c-6.816-106.080-64.736-172.256-115.6-218.608zM174.576 177.664c4.112 1.6 6.16 6.224 4.576 10.336s-6.24 6.192-10.352 4.56c-3.376-1.312-7.024-2.928-10.944-4.672-13.504-6-30.32-13.488-50.656-13.488-62.112 0-107.2-41.712-107.2-99.2 0-59.104 48.096-107.2 107.2-107.2 45.184 0 76.032 20.192 91.504 59.552 8.096 17.36 9.296 55.36 9.296 76.448 0 4.304 12.192 13.488 19.488 18.976 6.736 5.056 13.696 10.304 18.496 15.712 2.928 3.312 2.624 8.368-0.672 11.296-3.296 2.944-8.368 2.624-11.296-0.672-3.744-4.24-10.048-8.976-16.16-13.568-13.296-10.016-25.856-19.456-25.856-31.744 0-33.152-2.912-59.216-7.984-70.144-13.2-33.536-38.336-49.856-76.816-49.856-50.288 0-91.2 40.912-91.2 91.2 0 48.224 38.352 83.2 91.2 83.2 23.744 0 43.056 8.608 57.168 14.896 3.648 1.632 7.056 3.136 10.208 4.368zM243.104 208.256c0-7.123 5.774-12.896 12.896-12.896s12.896 5.774 12.896 12.896c0 7.123-5.774 12.896-12.896 12.896s-12.896-5.774-12.896-12.896z"/>
<glyph unicode="" d="M246.448 144h73.28c16.848 0 30.544 13.696 32.272 30.544v274.912c-1.728 16.848-15.424 30.544-32.272 30.544h-287.456c-16.848 0-30.544-13.696-32.272-30.544v-274.912c1.728-16.848 15.424-30.544 32.272-30.544h79.392c5.568 0 33.328-1.184 33.328-24.672 0-41.952-8.848-61.472-12.192-68.832l-0.784-1.744 6.448-2.784v-0.208l-7.152 1.44c-0.272-0.528-0.48-1.088-0.608-1.664-2.464-6.576-3.712-13.328-3.712-20.112 0.016-34.352 19.696-57.424 49.008-57.424 29.616 0 49.504 23.072 49.504 57.424 0 6.256-1.056 12.48-3.168 18.576-0.080 1.824-0.784 3.52-1.904 4.832-0.416 0.96-0.96 2-1.616 3.232-3.504 6.64-10.816 20.432-10.816 67.264 0 9.92 10.24 24.672 38.448 24.672zM16 287.056h320v-63.056h-320v63.056zM32.272 464h287.456c8.016 0 14.544-6.528 16.272-14.544v-146.384h-320v146.384c1.728 8.016 8.256 14.544 16.272 14.544zM204.672 44.576c0.448-0.848 0.832-1.552 1.488-3.024 0-0.016 0.048-0.112 0.112-0.256 0.064-0.208 0.128-0.4 0.208-0.608 2-5.008 3.008-10.16 3.008-15.264 0.016-20.032-8.784-41.424-33.488-41.424-24.336 0-32.992 21.392-32.992 41.424 0 5.104 1.008 10.256 3.008 15.264 0.064 0.192 0.144 0.368 0.192 0.56 0.224 0.48 0.496 1.088 0.528 1.152l0.672 1.488c3.712 8.224 13.616 30.016 13.616 75.44-0.032 32.112-31.024 40.672-49.824 40.672 0 0 0 0-0.016 0h-78.912c-8.016 0-14.544 6.528-16.272 14.544v33.456h320v-33.456c-1.728-8.016-8.256-14.544-16.272-14.544h-73.28c-39.952 0-54.448-24.336-54.448-40.672 0-50.8 8.56-66.992 12.672-74.752z" horiz-adv-x="352"/>
<glyph unicode="" d="M168 480c-92.64 0-168-75.36-168-168s75.36-168 168-168c43.6 0 83.248 16.832 113.136 44.16 0.352-0.624 0.672-1.28 1.216-1.824l34.416-34.416c-2.88-4.864-4.512-10.368-4.512-16.176 0-8.544 3.328-16.576 9.376-22.624l135.76-135.76c6.032-6.032 14.064-9.36 22.608-9.36s16.576 3.328 22.624 9.376 9.376 14.080 9.376 22.624-3.328 16.576-9.376 22.624l-135.76 135.76c-10.144 10.144-26.544 11.664-38.72 4.784l-34.48 34.48c-0.544 0.544-1.184 0.864-1.824 1.216 27.328 29.888 44.16 69.536 44.16 113.136 0 92.64-75.36 168-168 168zM355.552 147.072l135.76-135.76c3.024-3.024 4.688-7.040 4.688-11.312s-1.664-8.288-4.688-11.312c-6.064-6.032-16.56-6.032-22.624 0l-135.76 135.76c-3.008 3.024-4.688 7.040-4.688 11.312s1.664 8.288 4.688 11.312c3.024 3.008 7.040 4.688 11.312 4.688s8.272-1.664 11.312-4.688zM168 160c-83.808 0-152 68.192-152 152s68.192 152 152 152 152-68.192 152-152-68.192-152-152-152zM168 432c-66.176 0-120-53.824-120-120s53.824-120 120-120 120 53.824 120 120-53.824 120-120 120zM168 208c-57.344 0-104 46.656-104 104s46.656 104 104 104 104-46.656 104-104-46.656-104-104-104z"/>
<glyph unicode="" d="M184.224 384c4.416 0 8 3.584 8 8v24h7.776c4.416 0 8 3.584 8 8v48c0 4.416-3.584 8-8 8h-32c-4.416 0-8-3.584-8-8v-48c0-4.416 3.584-8 8-8h8.224v-24c0-4.416 3.568-8 8-8zM176 464h16v-32h-16v32zM4.288-29.072c1.184-0.624 2.448-0.928 3.712-0.928 2.88 0 5.664 1.568 7.072 4.288l68.672 130.768c30.8-15.472 64.944-23.84 100.464-23.84 35.424 0 69.504 8.336 100.24 23.728l68.448-130.656c1.44-2.72 4.224-4.288 7.088-4.288 1.248 0 2.528 0.304 3.712 0.912 3.904 2.064 5.424 6.896 3.376 10.816l-68.608 130.96c15.856 9.44 30.752 20.672 44.128 34.048 15.6 15.6 15.6 40.976 0 56.56-15.12 15.12-41.504 15.088-56.56 0-7.568-7.568-15.904-14.080-24.72-19.68l-37.728 72.016c14.608 11.664 24.176 29.392 24.176 49.488 0 35.040-28.512 63.568-63.568 63.568s-63.52-28.528-63.52-63.584c0-20.080 9.536-37.792 24.112-49.456l-37.808-71.968c-8.768 5.6-17.056 12.080-24.576 19.6-15.12 15.12-41.504 15.088-56.56 0-15.6-15.6-15.6-40.976 0-56.56 13.312-13.312 28.144-24.512 43.92-33.92l-68.832-131.072c-2.064-3.92-0.56-8.752 3.36-10.8zM54.112 199.008c6.416 0 12.448-2.496 16.992-7.024 30.176-30.176 70.336-46.784 113.12-46.784s82.976 16.608 113.152 46.784c9.056 9.072 24.88 9.040 33.936 0 9.36-9.36 9.36-24.576 0-33.936-39.232-39.216-91.488-60.832-147.088-60.832-55.632 0-107.84 21.616-147.056 60.832-9.36 9.36-9.36 24.576 0 33.936 4.512 4.512 10.528 7.024 16.944 7.024zM136.672 305.104c0 26.224 21.328 47.568 47.552 47.568s47.568-21.344 47.568-47.568-21.344-47.568-47.568-47.568-47.552 21.36-47.552 47.568zM158.384 247.152c7.904-3.536 16.624-5.616 25.84-5.616 9.184 0 17.872 2.048 25.76 5.568l37.36-71.312c-19.424-9.472-40.848-14.624-63.12-14.624-22.336 0-43.808 5.168-63.264 14.688l37.424 71.296z" horiz-adv-x="368"/>
<glyph unicode="" d="M624 480c-26.464 0-48-21.536-48-48 0-14.208 6.336-26.864 16.176-35.664l-140.8-224.496c-5.936 2.64-12.48 4.16-19.376 4.16-13.888 0-26.304-6.016-35.088-15.472l-145.168 91.92c2.688 5.984 4.256 12.576 4.256 19.552 0 26.464-21.536 48-48 48s-48-21.536-48-48c0-14.464 6.56-27.296 16.704-36.096l-110.32-175.6c-5.664 2.368-11.872 3.696-18.384 3.696-26.464 0-48-21.536-48-48s21.536-48 48-48 48 21.536 48 48c0 14.208-6.32 26.848-16.16 35.648l110.464 175.84c5.488-2.208 11.44-3.488 17.696-3.488 13.744 0 26.064 5.872 34.816 15.152l145.248-91.968c-2.576-5.888-4.064-12.352-4.064-19.184 0-26.464 21.536-48 48-48s48 21.536 48 48c0 13.808-5.936 26.176-15.312 34.944l140.96 224.736c5.664-2.352 11.856-3.68 18.352-3.68 26.464 0 48 21.536 48 48s-21.536 48-48 48zM80 16c0-17.648-14.352-32-32-32s-32 14.352-32 32 14.352 32 32 32 32-14.352 32-32zM208 240c-17.648 0-32 14.352-32 32s14.352 32 32 32 32-14.352 32-32-14.352-32-32-32zM432 96c-17.648 0-32 14.352-32 32s14.352 32 32 32 32-14.352 32-32-14.352-32-32-32zM624 400c-17.648 0-32 14.352-32 32s14.352 32 32 32 32-14.352 32-32-14.352-32-32-32z" horiz-adv-x="672"/>
<glyph unicode="" d="M112 95.888v-63.888h-47.456c-18.256 0-32-13.744-32-32v-24c0-4.416 3.584-8 8-8h160c4.416 0 8 3.584 8 8v22.8c0 18.624-14.064 33.2-32 33.2h-48.544v63.888c63.568 4.448 113.088 56.96 113.088 121.024v30.192c0 4.72-3.824 8.544-8.544 8.544s-8.544-3.84-8.544-8.56v-30.192c0-57.552-46.4-104.352-103.456-104.352s-103.456 46.816-103.456 104.352v30.192c0 4.72-3.824 8.544-8.544 8.544s-8.544-3.824-8.544-8.544v-30.192c0-64.048 49.52-116.56 112-121.008zM192.544-1.2v-14.8h-144v16c0 9.424 6.576 16 16 16h112c9.12 0 16-7.392 16-17.2zM120.544 480.544c-40 0-72.544-32.944-72.544-73.456v-190.192c0-40.496 32.544-73.456 72.544-73.456s72.544 32.96 71.456 73.456v190.192c1.088 40.512-31.456 73.456-71.456 73.456zM176 216.912c0-31.072-24.88-56.352-55.456-56.352s-56.544 25.264-56.544 56.352v190.176c0 31.072 25.968 56.352 56.544 56.352s55.456-25.264 55.456-56.352v-190.176z" horiz-adv-x="240"/>
<glyph unicode="" d="M352-24c0 4.416-3.584 8-8 8h-288c-4.416 0-8-3.584-8-8s3.584-8 8-8h288c4.416 0 8 3.584 8 8zM20.384 330.336c-6.688-4.448-16.832-17.984-7.216-37.216 7.984-15.952 24.64-35.472 42.352-40.624 9.024-2.656 17.92-1.552 25.68 3.136 17.584 10.528 38.352 24.768 47.152 30.88 11.104-5.616 25.12-6.784 39.36-3.12 0.064 0.016 0.128 0.048 0.192 0.064-0.832-26.416-9.776-42.912-53.504-83.52-38.976-36.176-62.096-83.696-61.872-127.136 0.16-28.496 10.544-52.96 30.080-70.704 1.488-1.36 3.408-2.096 5.392-2.096h224c4.416 0 8 3.584 8 8s-3.584 8-8 8h-220.816c-14.704 14.48-22.512 34.080-22.64 56.88-0.208 38.432 21.552 82.64 56.752 115.328 46.64 43.296 58.704 63.808 58.704 99.792 0 0.656-0.224 1.232-0.368 1.84 8.752 4.72 16.32 10.96 21.488 18.512 6.48 9.44 20.432 33.68 10.080 55.136-1.92 3.952-6.704 5.632-10.688 3.712-3.968-1.92-5.648-6.704-3.712-10.688 4.656-9.648 1.344-24.272-8.864-39.12-5.888-8.576-16.416-15.504-28.176-18.512-11.952-3.056-23.312-1.712-31.232 3.712-2.768 1.888-6.4 1.872-9.136-0.064-0.288-0.192-28.432-20.016-50.384-33.184-4.016-2.4-8.256-2.912-12.992-1.504-12.384 3.616-26 19.392-32.512 32.416-5.264 10.528 0.128 15.552 2.576 17.344 55.152 47.632 82.832 97.12 83.968 99.216 1.056 1.952 1.28 4.256 0.576 6.384-0.080 0.24-5.6 17.008-8.64 32.528 16.736-10.080 45.52-24.16 75.488-24.16 41.664 0 138.528-15.552 138.528-159.616 0-0.784-0.144-79.104-31.52-165.232-1.52-4.144 0.624-8.736 4.784-10.256 0.912-0.304 1.824-0.464 2.736-0.464 3.264 0 6.336 2.016 7.52 5.264 32.336 88.768 32.496 167.456 32.48 170.736 0 162.928-118.288 175.584-154.528 175.584-40.144 0-80.192 30.448-80.576 30.768-2.448 1.84-5.68 2.144-8.432 0.816-2.736-1.344-4.464-4.128-4.464-7.168 0-15.696 7.44-41.088 10.336-50.352-6.688-11.168-33.056-52.496-77.952-91.312zM279.76 455.36c-25.616 17.264-54.256 24.64-95.76 24.64-4.416 0-8-3.584-8-8s3.584-8 8-8c38.080 0 64.048-6.544 86.832-21.904 37.024-24.992 81.168-74.784 81.168-170.096 0-23.216 0-55.008-15.76-118.064-1.056-4.288 1.536-8.624 5.824-9.696 0.656-0.16 1.296-0.24 1.936-0.24 3.6 0 6.864 2.416 7.76 6.064 16.24 64.944 16.24 97.888 16.24 121.936 0 102.336-47.984 156.208-88.24 183.36z" horiz-adv-x="368"/>
<glyph unicode="" d="M280 464c4.416 0 8 3.584 8 8s-3.584 8-8 8h-144c-4.416 0-8-3.584-8-8s3.584-8 8-8h144zM15.84 37.84c-17.184-24.176-15.264-39.968-10.624-48.96 4.912-9.52 17.712-20.88 50.784-20.88h320c33.072 0 45.872 11.36 50.784 20.896 4.64 8.992 6.56 24.784-10.368 48.544l-99.504 159.2-1.408 1.984c-7.152 10.208-43.504 73.024-43.504 125.376v116c0 4.416-3.584 8-8 8h-112c-4.416 0-8-3.584-8-8v-116c0-55.856-39.44-127.312-39.888-128.080l-88.272-158.080zM412.576-3.76c-4.016-7.792-17.344-12.24-36.576-12.24h-320c-19.232 0-32.56 4.448-36.576 12.24-3.664 7.104-0.32 18.592 9.92 33.056l79.984 143.168 0.112-0.064c14.56-8.4 29.616-17.088 59.504-17.088s44.96 8.672 59.504 17.056c13.328 7.68 25.904 14.944 51.52 14.944 9.712 0 18.128-1.2 25.872-3.36l97.28-155.392c9.776-13.728 13.12-25.216 9.456-32.32zM160 324v108h96v-108c0-45.44 24.256-96.672 38.464-121.632-4.64 0.528-9.36 0.944-14.48 0.944-29.904 0-44.96-8.672-59.504-17.056-13.328-7.68-25.904-14.944-51.52-14.944s-38.192 7.264-51.504 14.944l-0.304 0.176 0.736 1.312c0.4 0.64 42.112 74.976 42.112 136.256z" horiz-adv-x="432"/>
<glyph unicode="" d="M348.784 432.736c-17.68 30.464-41.744 47.264-67.76 47.264s-50.096-16.8-67.776-47.264l-196.304-338.128c-17.92-31.152-19.84-63.504-5.28-88.736 13.856-24 41.040-37.808 74.624-37.872h389.456c0 0 0 0 0.016 0 33.632 0.064 60.864 13.824 74.672 37.776 14.48 25.072 12.528 57.296-5.36 88.4l-196.288 338.56zM536.592 13.776c-10.896-18.88-33.072-29.728-60.864-29.776h-389.424c-27.696 0.048-49.84 10.944-60.784 29.872-11.632 20.16-9.696 46.672 5.28 72.736l196.288 338.096c14.704 25.344 33.856 39.296 53.936 39.296s39.232-13.952 53.92-39.296l196.288-338.512c14.96-26.016 16.912-52.416 5.36-72.416zM281.024 160c4.416 0 8 3.584 8 8v160c0 4.416-3.584 8-8 8s-8-3.584-8-8v-160c0-4.416 3.584-8 8-8zM280 120c-17.648 0-32-14.352-32-32s14.352-32 32-32 32 14.352 32 32-14.352 32-32 32zM280 72c-8.816 0-16 7.168-16 16s7.184 16 16 16 16-7.168 16-16-7.184-16-16-16z" horiz-adv-x="560"/>
<glyph unicode="" d="M194.368 437.344l-49.008-72.88c-2.464-3.664-1.488-8.64 2.176-11.104s8.64-1.488 11.104 2.176l49.296 73.328c13.12 22.672 30.208 35.136 48.064 35.136s34.944-12.464 48.048-35.104l88.224-153.6-62.72 12.544c-4.368 0.912-8.56-1.936-9.408-6.288-0.864-4.336 1.952-8.544 6.272-9.408l80-16c0.544-0.096 1.072-0.144 1.584-0.144 1.264 0 2.448 0.4 3.536 0.944 0.144 0.064 0.304 0.032 0.448 0.112 0.16 0.096 0.256 0.256 0.416 0.368 0.528 0.352 0.992 0.768 1.424 1.248 0.256 0.272 0.512 0.512 0.72 0.816 0.336 0.496 0.56 1.040 0.784 1.6 0.144 0.368 0.336 0.704 0.416 1.088 0.016 0.096 0.080 0.16 0.096 0.256l16 80c0.864 4.336-1.952 8.544-6.272 9.408-4.368 0.912-8.56-1.936-9.408-6.288l-11.824-59.12-86.416 150.464c-16.128 27.792-38.112 43.104-61.92 43.104s-45.792-15.312-61.632-42.656zM160 23.696c0 4.416-3.584 8-8 8h-71.984c-24.752 0.048-44.544 9.744-54.272 26.624-10.368 17.968-8.624 41.664 4.8 65.008l88.192 154.304 25.84-64.624c1.248-3.104 4.256-5.008 7.424-5.008 0.992 0 2 0.192 2.976 0.576 4.096 1.648 6.096 6.304 4.464 10.384l-32 80c-0.16 0.416-0.448 0.72-0.672 1.088-0.208 0.336-0.352 0.672-0.608 0.992-0.56 0.672-1.2 1.2-1.904 1.648-0.112 0.080-0.176 0.192-0.288 0.256-0.016 0.016-0.032 0-0.048 0.016-0.896 0.512-1.872 0.816-2.912 0.944-0.176 0.016-0.336-0.032-0.512-0.016-0.688 0.048-1.36 0.096-2.064-0.064l-80-16c-4.336-0.864-7.136-5.072-6.272-9.408s5.008-7.152 9.408-6.288l62.752 12.544-87.68-153.408c-16.336-28.4-18.064-57.92-4.768-80.976 12.672-21.936 37.488-34.56 68.112-34.624h72c4.432 0.032 8.016 3.616 8.016 8.032zM500.224 50.464c13.168 22.816 11.392 52.128-4.496 79.68l-32.4 73.088c-1.792 4.032-6.512 5.888-10.56 4.064-4.032-1.792-5.856-6.512-4.064-10.56l32.784-73.824c13.344-23.232 15.136-46.72 4.896-64.448-9.68-16.784-29.504-26.416-54.384-26.464l-164.96-0.272 34.608 34.608c3.12 3.12 3.12 8.192 0 11.312s-8.192 3.12-11.312 0l-48-48c-1.6-1.6-2.352-3.712-2.32-5.808 0-0.048-0.032-0.096-0.032-0.16 0-2.592 1.328-4.8 3.264-6.256l47.088-47.088c1.568-1.552 3.616-2.336 5.664-2.336s4.096 0.784 5.664 2.336c3.12 3.12 3.12 8.192 0 11.312l-34.080 34.080 164.432 0.272c30.72 0.064 55.584 12.624 68.208 34.464z"/>
<glyph unicode="" d="M12.992 177.664l35.008 35.024v-12.688c0-121.424 110.576-232 232-232s232 110.576 232 232v12.352l35.344-35.344c1.568-1.568 3.616-2.336 5.664-2.336s4.096 0.784 5.664 2.336c3.12 3.12 3.12 8.192 0 11.312l-48.288 48.288c-1.472 2-3.712 3.392-6.384 3.392-0.72 0-1.344-0.224-2.016-0.4-1.472-0.304-2.896-0.864-3.984-1.936l-48.672-48.672c-3.12-3.12-3.12-8.192 0-11.312s8.192-3.12 11.312 0l35.36 35.344v-13.024c0-110.368-98.16-210.832-208-215.552v303.552h136c4.416 0 8 3.584 8 8s-3.584 8-8 8h-136v64.816c27.072 3.92 48 27.056 48 55.184 0 30.88-25.12 56-56 56s-56-25.12-56-56c0-28.128 20.928-51.264 48-55.184v-64.816h-136c-4.416 0-8-3.584-8-8s3.584-8 8-8h136v-303.552c-109.84 4.72-208 105.184-208 215.552v12.688l35.68-35.68c1.568-1.568 3.616-2.336 5.664-2.336s4.096 0.784 5.664 2.336c3.12 3.12 3.12 8.192 0 11.312l-49.328 49.312c-1.456 1.472-3.472 2.368-5.68 2.368s-4.224-0.896-5.664-2.352l-48.656-48.656c-3.12-3.12-3.12-8.192 0-11.312s8.192-3.136 11.312-0.016zM280 464c22.048 0 40-17.936 40-40s-17.952-40-40-40-40 17.936-40 40 17.952 40 40 40z" horiz-adv-x="560"/>
</font>
</defs>
</svg>
